  0
SECTION
  2
HEADER
  9
$ACADVER
  1
AC1015
  9
$ACADMAINTVER
 70
    18
  9
$DWGCODEPAGE
  3
ANSI_1252
  9
$INSBASE
 10
0.0
 20
0.0
 30
0.0
  9
$EXTMIN
 10
0.0
 20
0.0
 30
0.0
  9
$EXTMAX
 10
594.0
 20
420.0
 30
0.0
  9
$LIMMIN
 10
0.0
 20
0.0
  9
$LIMMAX
 10
594.0
 20
420.0
  9
$ORTHOMODE
 70
     0
  9
$REGENMODE
 70
     1
  9
$FILLMODE
 70
     1
  9
$QTEXTMODE
 70
     0
  9
$MIRRTEXT
 70
     0
  9
$LTSCALE
 40
2.0
  9
$ATTMODE
 70
     1
  9
$TEXTSIZE
 40
0.2
  9
$TRACEWID
 40
0.05
  9
$TEXTSTYLE
  7
Standard
  9
$CLAYER
  8
0
  9
$CELTYPE
  6
ByLayer
  9
$CECOLOR
 62
   256
  9
$CELTSCALE
 40
1.0
  9
$DISPSILH
 70
     0
  9
$DIMSCALE
 40
1.0
  9
$DIMASZ
 40
1.799999999999999
  9
$DIMEXO
 40
0.0625
  9
$DIMDLI
 40
0.38
  9
$DIMRND
 40
0.0
  9
$DIMDLE
 40
0.0
  9
$DIMEXE
 40
0.18
  9
$DIMTP
 40
0.0
  9
$DIMTM
 40
0.0
  9
$DIMTXT
 40
0.3499999940395355
  9
$DIMCEN
 40
0.09
  9
$DIMTSZ
 40
0.0
  9
$DIMTOL
 70
     0
  9
$DIMLIM
 70
     0
  9
$DIMTIH
 70
     1
  9
$DIMTOH
 70
     1
  9
$DIMSE1
 70
     0
  9
$DIMSE2
 70
     0
  9
$DIMTAD
 70
     0
  9
$DIMZIN
 70
     0
  9
$DIMBLK
  1

  9
$DIMASO
 70
     1
  9
$DIMSHO
 70
     1
  9
$DIMPOST
  1

  9
$DIMAPOST
  1

  9
$DIMALT
 70
     0
  9
$DIMALTD
 70
     2
  9
$DIMALTF
 40
25.4
  9
$DIMLFAC
 40
1.0
  9
$DIMTOFL
 70
     0
  9
$DIMTVP
 40
0.0
  9
$DIMTIX
 70
     0
  9
$DIMSOXD
 70
     0
  9
$DIMSAH
 70
     0
  9
$DIMBLK1
  1

  9
$DIMBLK2
  1

  9
$DIMSTYLE
  2
Standard
  9
$DIMCLRD
 70
     0
  9
$DIMCLRE
 70
     0
  9
$DIMCLRT
 70
     0
  9
$DIMTFAC
 40
1.0
  9
$DIMGAP
 40
0.09
  9
$DIMJUST
 70
     0
  9
$DIMSD1
 70
     0
  9
$DIMSD2
 70
     0
  9
$DIMTOLJ
 70
     1
  9
$DIMTZIN
 70
     0
  9
$DIMALTZ
 70
     0
  9
$DIMALTTZ
 70
     0
  9
$DIMUPT
 70
     0
  9
$DIMDEC
 70
     4
  9
$DIMTDEC
 70
     4
  9
$DIMALTU
 70
     2
  9
$DIMALTTD
 70
     2
  9
$DIMTXSTY
  7
Standard
  9
$DIMAUNIT
 70
     0
  9
$DIMADEC
 70
     0
  9
$DIMALTRND
 40
0.0
  9
$DIMAZIN
 70
     0
  9
$DIMDSEP
 70
    46
  9
$DIMATFIT
 70
     3
  9
$DIMFRAC
 70
     0
  9
$DIMLDRBLK
  1

  9
$DIMLUNIT
 70
     2
  9
$DIMLWD
 70
    -2
  9
$DIMLWE
 70
    -2
  9
$DIMTMOVE
 70
     0
  9
$LUNITS
 70
     2
  9
$LUPREC
 70
     4
  9
$SKETCHINC
 40
0.1
  9
$FILLETRAD
 40
0.0
  9
$AUNITS
 70
     0
  9
$AUPREC
 70
     0
  9
$MENU
  1
.
  9
$ELEVATION
 40
0.0
  9
$PELEVATION
 40
0.0
  9
$THICKNESS
 40
0.0
  9
$LIMCHECK
 70
     0
  9
$CHAMFERA
 40
0.0
  9
$CHAMFERB
 40
0.0
  9
$CHAMFERC
 40
0.0
  9
$CHAMFERD
 40
0.0
  9
$SKPOLY
 70
     0
  9
$TDCREATE
 40
2454112.459800544
  9
$TDUCREATE
 40
2454112.418133878
  9
$TDUPDATE
 40
2454112.459800544
  9
$TDUUPDATE
 40
2454112.418133878
  9
$TDINDWG
 40
0.0000649190
  9
$TDUSRTIMER
 40
0.0000649190
  9
$USRTIMER
 70
     1
  9
$ANGBASE
 50
0.0
  9
$ANGDIR
 70
     0
  9
$PDMODE
 70
     0
  9
$PDSIZE
 40
0.0
  9
$PLINEWID
 40
0.0
  9
$SPLFRAME
 70
     0
  9
$SPLINETYPE
 70
     6
  9
$SPLINESEGS
 70
     8
  9
$HANDSEED
  5
ADB
  9
$SURFTAB1
 70
     6
  9
$SURFTAB2
 70
     6
  9
$SURFTYPE
 70
     6
  9
$SURFU
 70
     6
  9
$SURFV
 70
     6
  9
$UCSBASE
  2

  9
$UCSNAME
  2

  9
$UCSORG
 10
0.0
 20
0.0
 30
0.0
  9
$UCSXDIR
 10
1.0
 20
0.0
 30
0.0
  9
$UCSYDIR
 10
0.0
 20
1.0
 30
0.0
  9
$UCSORTHOREF
  2

  9
$UCSORTHOVIEW
 70
     0
  9
$UCSORGTOP
 10
0.0
 20
0.0
 30
0.0
  9
$UCSORGBOTTOM
 10
0.0
 20
0.0
 30
0.0
  9
$UCSORGLEFT
 10
0.0
 20
0.0
 30
0.0
  9
$UCSORGRIGHT
 10
0.0
 20
0.0
 30
0.0
  9
$UCSORGFRONT
 10
0.0
 20
0.0
 30
0.0
  9
$UCSORGBACK
 10
0.0
 20
0.0
 30
0.0
  9
$PUCSBASE
  2

  9
$PUCSNAME
  2

  9
$PUCSORG
 10
0.0
 20
0.0
 30
0.0
  9
$PUCSXDIR
 10
1.0
 20
0.0
 30
0.0
  9
$PUCSYDIR
 10
0.0
 20
1.0
 30
0.0
  9
$PUCSORTHOREF
  2

  9
$PUCSORTHOVIEW
 70
     0
  9
$PUCSORGTOP
 10
0.0
 20
0.0
 30
0.0
  9
$PUCSORGBOTTOM
 10
0.0
 20
0.0
 30
0.0
  9
$PUCSORGLEFT
 10
0.0
 20
0.0
 30
0.0
  9
$PUCSORGRIGHT
 10
0.0
 20
0.0
 30
0.0
  9
$PUCSORGFRONT
 10
0.0
 20
0.0
 30
0.0
  9
$PUCSORGBACK
 10
0.0
 20
0.0
 30
0.0
  9
$USERI1
 70
     0
  9
$USERI2
 70
     0
  9
$USERI3
 70
     0
  9
$USERI4
 70
     0
  9
$USERI5
 70
     0
  9
$USERR1
 40
0.0
  9
$USERR2
 40
0.0
  9
$USERR3
 40
0.0
  9
$USERR4
 40
0.0
  9
$USERR5
 40
0.0
  9
$WORLDVIEW
 70
     1
  9
$SHADEDGE
 70
     3
  9
$SHADEDIF
 70
    70
  9
$TILEMODE
 70
     1
  9
$MAXACTVP
 70
    64
  9
$PINSBASE
 10
0.0
 20
0.0
 30
0.0
  9
$PLIMCHECK
 70
     0
  9
$PEXTMIN
 10
0.0
 20
0.0
 30
0.0
  9
$PEXTMAX
 10
594.0
 20
420.0
 30
0.0
  9
$PLIMMIN
 10
0.0
 20
0.0
  9
$PLIMMAX
 10
594.0
 20
420.0
  9
$UNITMODE
 70
     0
  9
$VISRETAIN
 70
     1
  9
$PLINEGEN
 70
     0
  9
$PSLTSCALE
 70
     1
  9
$TREEDEPTH
 70
  3020
  9
$CMLSTYLE
  2
Standard
  9
$CMLJUST
 70
     0
  9
$CMLSCALE
 40
1.0
  9
$PROXYGRAPHICS
 70
     1
  9
$MEASUREMENT
 70
     1
  9
$CELWEIGHT
370
    -1
  9
$ENDCAPS
280
     0
  9
$JOINSTYLE
280
     0
  9
$LWDISPLAY
290
     0
  9
$INSUNITS
 70
     0
  9
$HYPERLINKBASE
  1

  9
$STYLESHEET
  1

  9
$XEDIT
290
     1
  9
$CEPSNTYPE
380
     0
  9
$PSTYLEMODE
290
     1
  9
$FINGERPRINTGUID
  2
{82463690-4E57-40FA-9309-9D7D10ED7061}
  9
$VERSIONGUID
  2
{9A385CA0-31C9-46F9-891C-0D4576B1ED25}
  9
$EXTNAMES
290
     1
  9
$PSVPSCALE
 40
0.0
  9
$OLESTARTUP
290
     0
  0
ENDSEC
  0
SECTION
  2
CLASSES
  0
CLASS
  1
ACDBDICTIONARYWDFLT
  2
AcDbDictionaryWithDefault
  3
ObjectDBX Classes
 90
        0
280
     0
281
     0
  0
CLASS
  1
MATERIAL
  2
AcDbMaterial
  3
ObjectDBX Classes
 90
     1024
280
     0
281
     0
  0
CLASS
  1
VISUALSTYLE
  2
AcDbVisualStyle
  3
ObjectDBX Classes
 90
     4095
280
     0
281
     0
  0
CLASS
  1
TABLESTYLE
  2
AcDbTableStyle
  3
ObjectDBX Classes
 90
     4095
280
     0
281
     0
  0
CLASS
  1
DICTIONARYVAR
  2
AcDbDictionaryVar
  3
ObjectDBX Classes
 90
        0
280
     0
281
     0
  0
CLASS
  1
ACDBPLACEHOLDER
  2
AcDbPlaceHolder
  3
ObjectDBX Classes
 90
        0
280
     0
281
     0
  0
CLASS
  1
LAYOUT
  2
AcDbLayout
  3
ObjectDBX Classes
 90
        0
280
     0
281
     0
  0
ENDSEC
  0
SECTION
  2
TABLES
  0
TABLE
  2
VPORT
  5
8
330
0
100
AcDbSymbolTable
 70
     1
  0
VPORT
  5
28
330
8
100
AcDbSymbolTableRecord
100
AcDbViewportTableRecord
  2
*Active
 70
     0
 10
0.0
 20
0.0
 11
1.0
 21
1.0
 12
297.0
 22
210.0
 13
0.0
 23
0.0
 14
1.0
 24
1.0
 15
0.0
 25
0.0
 16
0.0
 26
0.0
 36
1.0
 17
0.0
 27
0.0
 37
0.0
 40
420.0
 41
1.414285714285714
 42
50.0
 43
0.0
 44
0.0
 50
0.0
 51
0.0
 71
     0
 72
   100
 73
     1
 74
     1
 75
     0
 76
     0
 77
     0
 78
     0
281
     0
 65
     1
110
0.0
120
0.0
130
0.0
111
1.0
121
0.0
131
0.0
112
0.0
122
1.0
132
0.0
 79
     0
146
0.0
  0
ENDTAB
  0
TABLE
  2
LTYPE
  5
5
330
0
100
AcDbSymbolTable
 70
    59
  0
LTYPE
  5
29
330
5
100
AcDbSymbolTableRecord
100
AcDbLinetypeTableRecord
  2
ByBlock
 70
     0
  3

 72
    65
 73
     0
 40
0.0
  0
LTYPE
  5
2A
330
5
100
AcDbSymbolTableRecord
100
AcDbLinetypeTableRecord
  2
ByLayer
 70
     0
  3

 72
    65
 73
     0
 40
0.0
  0
LTYPE
  5
2B
330
5
100
AcDbSymbolTableRecord
100
AcDbLinetypeTableRecord
  2
Continuous
 70
     0
  3
Solid line
 72
    65
 73
     0
 40
0.0
  0
LTYPE
  5
40
330
5
100
AcDbSymbolTableRecord
100
AcDbLinetypeTableRecord
  2
Section_View_Lines
 70
     0
  3
Section View Lines
 72
    65
 73
     4
 40
0.8406
 49
0.6614
 74
     0
 49
-0.0827
 74
     0
 49
0.0138
 74
     0
 49
-0.0827
 74
     0
  0
LTYPE
  5
41
330
5
100
AcDbSymbolTableRecord
100
AcDbLinetypeTableRecord
  2
CHAIN
 70
     0
  3
Chain ____ _ ____ _ ____ _ ____ _ ____ _ ____
 72
    65
 73
     4
 40
0.3543
 49
0.2362
 74
     0
 49
-0.0295
 74
     0
 49
0.0591
 74
     0
 49
-0.0295
 74
     0
  0
LTYPE
  5
42
330
5
100
AcDbSymbolTableRecord
100
AcDbLinetypeTableRecord
  2
DASH_DOT
 70
     0
  3
Dash dot _._._._._._._._._._._._._._._.
 72
    65
 73
     4
 40
0.37
 49
0.24
 74
     0
 49
-0.06
 74
     0
 49
0.01
 74
     0
 49
-0.06
 74
     0
  0
LTYPE
  5
43
330
5
100
AcDbSymbolTableRecord
100
AcDbLinetypeTableRecord
  2
DASH_DOUBLE_DOT
 70
     0
  3
Dash Double Dot __ __ . __ __ . __ __ . __ _
 72
    65
 73
     6
 40
0.4398
 49
0.24
 74
     0
 49
-0.06
 74
     0
 49
0.0098
 74
     0
 49
-0.06
 74
     0
 49
0.01
 74
     0
 49
-0.06
 74
     0
  0
LTYPE
  5
44
330
5
100
AcDbSymbolTableRecord
100
AcDbLinetypeTableRecord
  2
DASH_TRIPLE_DOT
 70
     0
  3
Dash Triple-Dot _ . . . _ . . . _ . . . _
 72
    65
 73
     8
 40
0.51
 49
0.24
 74
     0
 49
-0.06
 74
     0
 49
0.01
 74
     0
 49
-0.06
 74
     0
 49
0.01
 74
     0
 49
-0.06
 74
     0
 49
0.01
 74
     0
 49
-0.06
 74
     0
  0
LTYPE
  5
45
330
5
100
AcDbSymbolTableRecord
100
AcDbLinetypeTableRecord
  2
DASHED
 70
     0
  3
Dashed __ __ __ __ __ __ __ __ __ __ __ __ __ _
 72
    65
 73
     2
 40
0.2067
 49
0.1654
 74
     0
 49
-0.0413
 74
     0
  0
LTYPE
  5
46
330
5
100
AcDbSymbolTableRecord
100
AcDbLinetypeTableRecord
  2
DASHED_SPACE
 70
     0
  3
Dashed Space _._._._._._._._._._._._._._._.
 72
    65
 73
     2
 40
0.2067
 49
0.1654
 74
     0
 49
-0.0413
 74
     0
  0
LTYPE
  5
47
330
5
100
AcDbSymbolTableRecord
100
AcDbLinetypeTableRecord
  2
DOTTED
 70
     0
  3
Dotted . . . . . . . . . . . . . . . . . . . . 
 72
    65
 73
     2
 40
0.0482
 49
0.0069
 74
     0
 49
-0.0413
 74
     0
  0
LTYPE
  5
48
330
5
100
AcDbSymbolTableRecord
100
AcDbLinetypeTableRecord
  2
DOUBLE_DASH_CHAIN
 70
     0
  3
Double Dash Chain ___ _ _ ___ _ _ ___ _ _ ___ _
 72
    65
 73
     6
 40
1.240299999999999
 49
0.6614
 74
     0
 49
-0.0827
 74
     0
 49
0.1654
 74
     0
 49
-0.0827
 74
     0
 49
0.1654
 74
     0
 49
-0.0827
 74
     0
  0
LTYPE
  5
49
330
5
100
AcDbSymbolTableRecord
100
AcDbLinetypeTableRecord
  2
DOUBLE_DASH_DOT
 70
     0
  3
Double Dash Dot __ __ . __ __ . __ __ . __ _
 72
    65
 73
     6
 40
0.67
 49
0.24
 74
     0
 49
-0.06
 74
     0
 49
0.24
 74
     0
 49
-0.06
 74
     0
 49
0.01
 74
     0
 49
-0.06
 74
     0
  0
LTYPE
  5
4A
330
5
100
AcDbSymbolTableRecord
100
AcDbLinetypeTableRecord
  2
DOUBLE_DASH_DOUBLE_DOT
 70
     0
  3
Double-dash double-dot _ _ . . _ _ . . _
 72
    65
 73
     8
 40
0.7400000000000001
 49
0.24
 74
     0
 49
-0.06
 74
     0
 49
0.24
 74
     0
 49
-0.06
 74
     0
 49
0.01
 74
     0
 49
-0.06
 74
     0
 49
0.01
 74
     0
 49
-0.06
 74
     0
  0
LTYPE
  5
4B
330
5
100
AcDbSymbolTableRecord
100
AcDbLinetypeTableRecord
  2
DOUBLE_DASH_TRIPLE_DOT
 70
     0
  3
Double Dash Triple Dot __ __ . . . __ __ . . .
 72
    65
 73
    10
 40
0.8100000000000001
 49
0.24
 74
     0
 49
-0.06
 74
     0
 49
0.24
 74
     0
 49
-0.06
 74
     0
 49
0.01
 74
     0
 49
-0.06
 74
     0
 49
0.01
 74
     0
 49
-0.06
 74
     0
 49
0.01
 74
     0
 49
-0.06
 74
     0
  0
LTYPE
  5
4C
330
5
100
AcDbSymbolTableRecord
100
AcDbLinetypeTableRecord
  2
LONG_DASH_DOTTED
 70
     0
  3
Long-Dash Dot ____ . ____ . ____ . ____ . _
 72
    65
 73
     4
 40
0.3001
 49
0.2362
 74
     0
 49
-0.0295
 74
     0
 49
0.0049
 74
     0
 49
-0.0295
 74
     0
  0
LTYPE
  5
4D
330
5
100
AcDbSymbolTableRecord
100
AcDbLinetypeTableRecord
  2
LONG_DASH_DOUBLE_DOT
 70
     0
  3
Long Dash Double Dot ____ . . ____ . . ____ . .
 72
    65
 73
     6
 40
0.3345
 49
0.2362
 74
     0
 49
-0.0295
 74
     0
 49
0.0049
 74
     0
 49
-0.0295
 74
     0
 49
0.0049
 74
     0
 49
-0.0295
 74
     0
  0
LTYPE
  5
4E
330
5
100
AcDbSymbolTableRecord
100
AcDbLinetypeTableRecord
  2
LONG_DASH_TRIPLE_DOT
 70
     0
  3
Long Dash Triple Dot ____ ... ____ ... ____
 72
    65
 73
     8
 40
0.75
 49
0.48
 74
     0
 49
-0.06
 74
     0
 49
0.01
 74
     0
 49
-0.06
 74
     0
 49
0.01
 74
     0
 49
-0.06
 74
     0
 49
0.01
 74
     0
 49
-0.06
 74
     0
  0
LTYPE
  5
4F
330
5
100
AcDbSymbolTableRecord
100
AcDbLinetypeTableRecord
  2
BORDER
 70
     0
  3
Border __ __ . __ __ . __ __ . __ __ . __ __ .
 72
    65
 73
     6
 40
44.45
 49
12.7
 74
     0
 49
-6.349999999999999
 74
     0
 49
12.7
 74
     0
 49
-6.349999999999999
 74
     0
 49
0.0
 74
     0
 49
-6.349999999999999
 74
     0
  0
LTYPE
  5
50
330
5
100
AcDbSymbolTableRecord
100
AcDbLinetypeTableRecord
  2
BORDER2
 70
     0
  3
Border (.5x) __.__.__.__.__.__.__.__.__.__.__.
 72
    65
 73
     6
 40
22.225
 49
6.349999999999999
 74
     0
 49
-3.174999999999999
 74
     0
 49
6.349999999999999
 74
     0
 49
-3.174999999999999
 74
     0
 49
0.0
 74
     0
 49
-3.174999999999999
 74
     0
  0
LTYPE
  5
51
330
5
100
AcDbSymbolTableRecord
100
AcDbLinetypeTableRecord
  2
BORDERX2
 70
     0
  3
Border (2x) ____  ____  .  ____  ____  .  ___
 72
    65
 73
     6
 40
88.9
 49
25.4
 74
     0
 49
-12.7
 74
     0
 49
25.4
 74
     0
 49
-12.7
 74
     0
 49
0.0
 74
     0
 49
-12.7
 74
     0
  0
LTYPE
  5
52
330
5
100
AcDbSymbolTableRecord
100
AcDbLinetypeTableRecord
  2
CENTER
 70
     0
  3
Center ____ _ ____ _ ____ _ ____ _ ____ _ ____
 72
    65
 73
     4
 40
50.8
 49
31.75
 74
     0
 49
-6.349999999999999
 74
     0
 49
6.349999999999999
 74
     0
 49
-6.349999999999999
 74
     0
  0
LTYPE
  5
53
330
5
100
AcDbSymbolTableRecord
100
AcDbLinetypeTableRecord
  2
CENTER2
 70
     0
  3
Center (.5x) ___ _ ___ _ ___ _ ___ _ ___ _ ___
 72
    65
 73
     4
 40
28.575
 49
19.05
 74
     0
 49
-3.174999999999999
 74
     0
 49
3.174999999999999
 74
     0
 49
-3.174999999999999
 74
     0
  0
LTYPE
  5
54
330
5
100
AcDbSymbolTableRecord
100
AcDbLinetypeTableRecord
  2
CENTERX2
 70
     0
  3
Center (2x) ________  __  ________  __  _____
 72
    65
 73
     4
 40
101.6
 49
63.5
 74
     0
 49
-12.7
 74
     0
 49
12.7
 74
     0
 49
-12.7
 74
     0
  0
LTYPE
  5
55
330
5
100
AcDbSymbolTableRecord
100
AcDbLinetypeTableRecord
  2
DASHDOT2
 70
     0
  3
Dash dot (.5x) _._._._._._._._._._._._._._._.
 72
    65
 73
     4
 40
12.7
 49
6.349999999999999
 74
     0
 49
-3.174999999999999
 74
     0
 49
0.0
 74
     0
 49
-3.174999999999999
 74
     0
  0
LTYPE
  5
56
330
5
100
AcDbSymbolTableRecord
100
AcDbLinetypeTableRecord
  2
DASHDOTX2
 70
     0
  3
Dash dot (2x) ____  .  ____  .  ____  .  ___
 72
    65
 73
     4
 40
50.8
 49
25.4
 74
     0
 49
-12.7
 74
     0
 49
0.0
 74
     0
 49
-12.7
 74
     0
  0
LTYPE
  5
57
330
5
100
AcDbSymbolTableRecord
100
AcDbLinetypeTableRecord
  2
DASHED2
 70
     0
  3
Dashed (.5x) _ _ _ _ _ _ _ _ _ _ _ _ _ _ _ _ _
 72
    65
 73
     2
 40
9.524999999999998
 49
6.349999999999999
 74
     0
 49
-3.174999999999999
 74
     0
  0
LTYPE
  5
58
330
5
100
AcDbSymbolTableRecord
100
AcDbLinetypeTableRecord
  2
DASHEDX2
 70
     0
  3
Dashed (2x) ____  ____  ____  ____  ____  ___
 72
    65
 73
     2
 40
38.1
 49
25.4
 74
     0
 49
-12.7
 74
     0
  0
LTYPE
  5
59
330
5
100
AcDbSymbolTableRecord
100
AcDbLinetypeTableRecord
  2
DIVIDE
 70
     0
  3
Divide ____ . . ____ . . ____ . . ____ . . ____
 72
    65
 73
     6
 40
31.75
 49
12.7
 74
     0
 49
-6.349999999999999
 74
     0
 49
0.0
 74
     0
 49
-6.349999999999999
 74
     0
 49
0.0
 74
     0
 49
-6.349999999999999
 74
     0
  0
LTYPE
  5
5A
330
5
100
AcDbSymbolTableRecord
100
AcDbLinetypeTableRecord
  2
DIVIDE2
 70
     0
  3
Divide (.5x) __..__..__..__..__..__..__..__.._
 72
    65
 73
     6
 40
15.875
 49
6.349999999999999
 74
     0
 49
-3.174999999999999
 74
     0
 49
0.0
 74
     0
 49
-3.174999999999999
 74
     0
 49
0.0
 74
     0
 49
-3.174999999999999
 74
     0
  0
LTYPE
  5
5B
330
5
100
AcDbSymbolTableRecord
100
AcDbLinetypeTableRecord
  2
DIVIDEX2
 70
     0
  3
Divide (2x) ________  .  .  ________  .  .  _
 72
    65
 73
     6
 40
63.49999999999999
 49
25.4
 74
     0
 49
-12.7
 74
     0
 49
0.0
 74
     0
 49
-12.7
 74
     0
 49
0.0
 74
     0
 49
-12.7
 74
     0
  0
LTYPE
  5
5C
330
5
100
AcDbSymbolTableRecord
100
AcDbLinetypeTableRecord
  2
DOT
 70
     0
  3
Dot . . . . . . . . . . . . . . . . . . . . . .
 72
    65
 73
     2
 40
6.349999999999999
 49
0.0
 74
     0
 49
-6.349999999999999
 74
     0
  0
LTYPE
  5
5D
330
5
100
AcDbSymbolTableRecord
100
AcDbLinetypeTableRecord
  2
DOT2
 70
     0
  3
Dot (.5x) .....................................
 72
    65
 73
     2
 40
3.174999999999999
 49
0.0
 74
     0
 49
-3.174999999999999
 74
     0
  0
LTYPE
  5
5E
330
5
100
AcDbSymbolTableRecord
100
AcDbLinetypeTableRecord
  2
DOTX2
 70
     0
  3
Dot (2x) .  .  .  .  .  .  .  .  .  .  .  .  . 
 72
    65
 73
     2
 40
12.7
 49
0.0
 74
     0
 49
-12.7
 74
     0
  0
LTYPE
  5
5F
330
5
100
AcDbSymbolTableRecord
100
AcDbLinetypeTableRecord
  2
HIDDEN
 70
     0
  3
Hidden __ __ __ __ __ __ __ __ __ __ __ __ __ _
 72
    65
 73
     2
 40
9.524999999999998
 49
6.349999999999999
 74
     0
 49
-3.174999999999999
 74
     0
  0
LTYPE
  5
60
330
5
100
AcDbSymbolTableRecord
100
AcDbLinetypeTableRecord
  2
HIDDEN2
 70
     0
  3
Hidden (.5x) _ _ _ _ _ _ _ _ _ _ _ _ _ _ _ _ _
 72
    65
 73
     2
 40
4.762499999999999
 49
3.174999999999999
 74
     0
 49
-1.587499999999999
 74
     0
  0
LTYPE
  5
61
330
5
100
AcDbSymbolTableRecord
100
AcDbLinetypeTableRecord
  2
HIDDENX2
 70
     0
  3
Hidden (2x) ____ ____ ____ ____ ____ ____ ____
 72
    65
 73
     2
 40
19.05
 49
12.7
 74
     0
 49
-6.349999999999999
 74
     0
  0
LTYPE
  5
62
330
5
100
AcDbSymbolTableRecord
100
AcDbLinetypeTableRecord
  2
PHANTOM
 70
     0
  3
Phantom ______  __  __  ______  __  __  ______
 72
    65
 73
     6
 40
63.5
 49
31.75
 74
     0
 49
-6.349999999999999
 74
     0
 49
6.349999999999999
 74
     0
 49
-6.349999999999999
 74
     0
 49
6.349999999999999
 74
     0
 49
-6.349999999999999
 74
     0
  0
LTYPE
  5
63
330
5
100
AcDbSymbolTableRecord
100
AcDbLinetypeTableRecord
  2
PHANTOM2
 70
     0
  3
Phantom (.5x) ___ _ _ ___ _ _ ___ _ _ ___ _ _
 72
    65
 73
     6
 40
31.75
 49
15.875
 74
     0
 49
-3.174999999999999
 74
     0
 49
3.174999999999999
 74
     0
 49
-3.174999999999999
 74
     0
 49
3.174999999999999
 74
     0
 49
-3.174999999999999
 74
     0
  0
LTYPE
  5
64
330
5
100
AcDbSymbolTableRecord
100
AcDbLinetypeTableRecord
  2
PHANTOMX2
 70
     0
  3
Phantom (2x) ____________    ____    ____   _
 72
    65
 73
     6
 40
127.0
 49
63.5
 74
     0
 49
-12.7
 74
     0
 49
12.7
 74
     0
 49
-12.7
 74
     0
 49
12.7
 74
     0
 49
-12.7
 74
     0
  0
LTYPE
  5
65
330
5
100
AcDbSymbolTableRecord
100
AcDbLinetypeTableRecord
  2
ACAD_ISO02W100
 70
     0
  3
ISO dash __ __ __ __ __ __ __ __ __ __ __ __ __
 72
    65
 73
     2
 40
15.0
 49
12.0
 74
     0
 49
-3.0
 74
     0
  0
LTYPE
  5
66
330
5
100
AcDbSymbolTableRecord
100
AcDbLinetypeTableRecord
  2
ACAD_ISO03W100
 70
     0
  3
ISO dash space __    __    __    __    __    __
 72
    65
 73
     2
 40
30.0
 49
12.0
 74
     0
 49
-18.0
 74
     0
  0
LTYPE
  5
67
330
5
100
AcDbSymbolTableRecord
100
AcDbLinetypeTableRecord
  2
ACAD_ISO04W100
 70
     0
  3
ISO long-dash dot ____ . ____ . ____ . ____ . _
 72
    65
 73
     4
 40
30.0
 49
24.0
 74
     0
 49
-3.0
 74
     0
 49
0.0
 74
     0
 49
-3.0
 74
     0
  0
LTYPE
  5
68
330
5
100
AcDbSymbolTableRecord
100
AcDbLinetypeTableRecord
  2
ACAD_ISO05W100
 70
     0
  3
ISO long-dash double-dot ____ .. ____ .. ____ .
 72
    65
 73
     6
 40
33.0
 49
24.0
 74
     0
 49
-3.0
 74
     0
 49
0.0
 74
     0
 49
-3.0
 74
     0
 49
0.0
 74
     0
 49
-3.0
 74
     0
  0
LTYPE
  5
69
330
5
100
AcDbSymbolTableRecord
100
AcDbLinetypeTableRecord
  2
ACAD_ISO06W100
 70
     0
  3
ISO long-dash triple-dot ____ ... ____ ... ____
 72
    65
 73
     8
 40
36.0
 49
24.0
 74
     0
 49
-3.0
 74
     0
 49
0.0
 74
     0
 49
-3.0
 74
     0
 49
0.0
 74
     0
 49
-3.0
 74
     0
 49
0.0
 74
     0
 49
-3.0
 74
     0
  0
LTYPE
  5
6A
330
5
100
AcDbSymbolTableRecord
100
AcDbLinetypeTableRecord
  2
ACAD_ISO07W100
 70
     0
  3
ISO dot . . . . . . . . . . . . . . . . . . . .
 72
    65
 73
     2
 40
3.0
 49
0.0
 74
     0
 49
-3.0
 74
     0
  0
LTYPE
  5
6B
330
5
100
AcDbSymbolTableRecord
100
AcDbLinetypeTableRecord
  2
ACAD_ISO08W100
 70
     0
  3
ISO long-dash short-dash ____ __ ____ __ ____ _
 72
    65
 73
     4
 40
36.0
 49
24.0
 74
     0
 49
-3.0
 74
     0
 49
6.0
 74
     0
 49
-3.0
 74
     0
  0
LTYPE
  5
6C
330
5
100
AcDbSymbolTableRecord
100
AcDbLinetypeTableRecord
  2
ACAD_ISO09W100
 70
     0
  3
ISO long-dash double-short-dash ____ __ __ ____
 72
    65
 73
     6
 40
45.0
 49
24.0
 74
     0
 49
-3.0
 74
     0
 49
6.0
 74
     0
 49
-3.0
 74
     0
 49
6.0
 74
     0
 49
-3.0
 74
     0
  0
LTYPE
  5
6D
330
5
100
AcDbSymbolTableRecord
100
AcDbLinetypeTableRecord
  2
ACAD_ISO10W100
 70
     0
  3
ISO dash dot __ . __ . __ . __ . __ . __ . __ .
 72
    65
 73
     4
 40
18.0
 49
12.0
 74
     0
 49
-3.0
 74
     0
 49
0.0
 74
     0
 49
-3.0
 74
     0
  0
LTYPE
  5
6E
330
5
100
AcDbSymbolTableRecord
100
AcDbLinetypeTableRecord
  2
ACAD_ISO11W100
 70
     0
  3
ISO double-dash dot __ __ . __ __ . __ __ . __ 
 72
    65
 73
     6
 40
33.0
 49
12.0
 74
     0
 49
-3.0
 74
     0
 49
12.0
 74
     0
 49
-3.0
 74
     0
 49
0.0
 74
     0
 49
-3.0
 74
     0
  0
LTYPE
  5
6F
330
5
100
AcDbSymbolTableRecord
100
AcDbLinetypeTableRecord
  2
ACAD_ISO12W100
 70
     0
  3
ISO dash double-dot __ . . __ . . __ . . __ . .
 72
    65
 73
     6
 40
21.0
 49
12.0
 74
     0
 49
-3.0
 74
     0
 49
0.0
 74
     0
 49
-3.0
 74
     0
 49
0.0
 74
     0
 49
-3.0
 74
     0
  0
LTYPE
  5
70
330
5
100
AcDbSymbolTableRecord
100
AcDbLinetypeTableRecord
  2
ACAD_ISO13W100
 70
     0
  3
ISO double-dash double-dot __ __ . . __ __ . . 
 72
    65
 73
     8
 40
36.0
 49
12.0
 74
     0
 49
-3.0
 74
     0
 49
12.0
 74
     0
 49
-3.0
 74
     0
 49
0.0
 74
     0
 49
-3.0
 74
     0
 49
0.0
 74
     0
 49
-3.0
 74
     0
  0
LTYPE
  5
71
330
5
100
AcDbSymbolTableRecord
100
AcDbLinetypeTableRecord
  2
ACAD_ISO14W100
 70
     0
  3
ISO dash triple-dot __ . . . __ . . . __ . . . 
 72
    65
 73
     8
 40
24.0
 49
12.0
 74
     0
 49
-3.0
 74
     0
 49
0.0
 74
     0
 49
-3.0
 74
     0
 49
0.0
 74
     0
 49
-3.0
 74
     0
 49
0.0
 74
     0
 49
-3.0
 74
     0
  0
LTYPE
  5
72
330
5
100
AcDbSymbolTableRecord
100
AcDbLinetypeTableRecord
  2
ACAD_ISO15W100
 70
     0
  3
ISO double-dash triple-dot __ __ . . . __ __ . 
 72
    65
 73
    10
 40
39.0
 49
12.0
 74
     0
 49
-3.0
 74
     0
 49
12.0
 74
     0
 49
-3.0
 74
     0
 49
0.0
 74
     0
 49
-3.0
 74
     0
 49
0.0
 74
     0
 49
-3.0
 74
     0
 49
0.0
 74
     0
 49
-3.0
 74
     0
  0
LTYPE
  5
75
330
5
100
AcDbSymbolTableRecord
100
AcDbLinetypeTableRecord
  2
FENCELINE1
 70
     0
  3
Fenceline circle ----0-----0----0-----0----0---
 72
    65
 73
     4
 40
36.83
 49
6.349999999999999
 74
     0
 49
-2.54
 74
     4
 75
   133
340
74
 46
2.54
 50
0.0
 44
-2.54
 45
0.0
 49
-2.54
 74
     0
 49
25.4
 74
     0
  0
LTYPE
  5
76
330
5
100
AcDbSymbolTableRecord
100
AcDbLinetypeTableRecord
  2
FENCELINE2
 70
     0
  3
Fenceline square ----[]-----[]----[]-----[]----
 72
    65
 73
     4
 40
36.83
 49
6.349999999999999
 74
     0
 49
-2.54
 74
     4
 75
   132
340
74
 46
2.54
 50
0.0
 44
-2.54
 45
0.0
 49
-2.54
 74
     0
 49
25.4
 74
     0
  0
LTYPE
  5
77
330
5
100
AcDbSymbolTableRecord
100
AcDbLinetypeTableRecord
  2
TRACKS
 70
     0
  3
Tracks -|-|-|-|-|-|-|-|-|-|-|-|-|-|-|-|-|-|-|-|
 72
    65
 73
     2
 40
7.62
 49
3.81
 74
     4
 75
   130
340
74
 46
6.349999999999999
 50
0.0
 44
0.0
 45
0.0
 49
3.81
 74
     0
  0
LTYPE
  5
78
330
5
100
AcDbSymbolTableRecord
100
AcDbLinetypeTableRecord
  2
BATTING
 70
     0
  3
Batting SSSSSSSSSSSSSSSSSSSSSSSSSSSSSSSSSSSSSSS
 72
    65
 73
     4
 40
10.16254
 49
0.00254
 74
     0
 49
-2.54
 74
     4
 75
   134
340
74
 46
2.54
 50
0.0
 44
-2.54
 45
0.0
 49
-5.08
 74
     4
 75
   134
340
74
 46
2.54
 50
180.0
 44
2.54
 45
0.0
 49
-2.54
 74
     0
  0
LTYPE
  5
79
330
5
100
AcDbSymbolTableRecord
100
AcDbLinetypeTableRecord
  2
HOT_WATER_SUPPLY
 70
     0
  3
Hot water supply ---- HW ---- HW ---- HW ----
 72
    65
 73
     3
 40
22.86
 49
12.7
 74
     0
 49
-5.08
 74
     2
 75
     0
340
26
 46
2.54
 50
0.0
 44
-2.54
 45
-1.27
  9
HW
 49
-5.08
 74
     0
  0
LTYPE
  5
7A
330
5
100
AcDbSymbolTableRecord
100
AcDbLinetypeTableRecord
  2
GAS_LINE
 70
     0
  3
Gas line ----GAS----GAS----GAS----GAS----GAS---
 72
    65
 73
     3
 40
24.13
 49
12.7
 74
     0
 49
-5.08
 74
     2
 75
     0
340
26
 46
2.54
 50
0.0
 44
-2.54
 45
-1.27
  9
GAS
 49
-6.349999999999999
 74
     0
  0
LTYPE
  5
7B
330
5
100
AcDbSymbolTableRecord
100
AcDbLinetypeTableRecord
  2
ZIGZAG
 70
     0
  3
Zig zag /\/\/\/\/\/\/\/\/\/\/\/\/\/\/\/\/\/\/\/
 72
    65
 73
     4
 40
20.32254
 49
0.00254
 74
     0
 49
-5.08
 74
     4
 75
   131
340
74
 46
5.08
 50
0.0
 44
-5.08
 45
0.0
 49
-10.16
 74
     4
 75
   131
340
74
 46
5.08
 50
180.0
 44
5.08
 45
0.0
 49
-5.08
 74
     0
  0
ENDTAB
  0
TABLE
  2
LAYER
  5
2
330
0
100
AcDbSymbolTable
 70
    74
  0
LAYER
  5
25
330
2
100
AcDbSymbolTableRecord
100
AcDbLayerTableRecord
  2
0
 70
     0
 62
     7
  6
Continuous
370
    -3
390
F
  0
LAYER
  5
90
330
2
100
AcDbSymbolTableRecord
100
AcDbLayerTableRecord
  2
Bemaßungen(TC_020513_DIN)
 70
     0
 62
     7
  6
Continuous
370
    25
390
F
  0
LAYER
  5
A2
330
2
100
AcDbSymbolTableRecord
100
AcDbLayerTableRecord
  2
Mittellinie(TC_020513_DIN)
 70
     0
 62
     7
  6
DASH_DOT
370
    25
390
F
  0
LAYER
  5
A4
330
2
100
AcDbSymbolTableRecord
100
AcDbLayerTableRecord
  2
Mittelpunktmarkierung(TC_020513_DIN)
 70
     0
 62
     7
  6
Continuous
370
    25
390
F
  0
LAYER
  5
AD
330
2
100
AcDbSymbolTableRecord
100
AcDbLayerTableRecord
  2
Schraffur
 70
     0
 62
   179
  6
Continuous
370
     9
390
F
  0
LAYER
  5
AF
330
2
100
AcDbSymbolTableRecord
100
AcDbLayerTableRecord
  2
Sichtbare Kanten(TC_020513_DIN)
 70
     0
 62
     7
  6
Continuous
370
    50
390
F
  0
LAYER
  5
B2
330
2
100
AcDbSymbolTableRecord
100
AcDbLayerTableRecord
  2
Skizziergeometrie(ISO)
 70
     0
 62
     7
  6
Continuous
370
    50
390
F
  0
LAYER
  5
B5
330
2
100
AcDbSymbolTableRecord
100
AcDbLayerTableRecord
  2
Skizzierlinie(TC_020513_DIN)
 70
     1
 62
     3
  6
Continuous
370
    18
390
F
  0
LAYER
  5
B7
330
2
100
AcDbSymbolTableRecord
100
AcDbLayerTableRecord
  2
Stich 1-Linien(TC_020513_DIN)
 70
     0
 62
     7
  6
DASHED_SPACE
370
    25
390
F
  0
LAYER
  5
BA
330
2
100
AcDbSymbolTableRecord
100
AcDbLayerTableRecord
  2
Symbole(ISO)
 70
     0
 62
     7
  6
Continuous
370
    25
390
F
  0
LAYER
  5
BB
330
2
100
AcDbSymbolTableRecord
100
AcDbLayerTableRecord
  2
Symbole(TC_020513_DIN)
 70
     0
 62
     7
  6
Continuous
370
    35
390
F
  0
LAYER
  5
3B6
330
2
100
AcDbSymbolTableRecord
100
AcDbLayerTableRecord
  2
Defpoints
 70
     0
 62
     7
  6
Continuous
290
     0
370
    -3
390
F
  0
ENDTAB
  0
TABLE
  2
STYLE
  5
3
330
0
100
AcDbSymbolTable
 70
    17
  0
STYLE
  5
26
330
3
100
AcDbSymbolTableRecord
100
AcDbTextStyleTableRecord
  2
Standard
 70
     0
 40
0.0
 41
1.0
 50
0.0
 71
     0
 42
0.2
  3
ARIAL.TTF
  4

1001
ACAD
1000
Arial
1071
      256
  0
STYLE
  5
74
330
3
100
AcDbSymbolTableRecord
100
AcDbTextStyleTableRecord
  2

 70
     1
 40
0.0
 41
1.0
 50
0.0
 71
     0
 42
0.2
  3
ltypeshp.shx
  4

  0
STYLE
  5
C4
330
3
100
AcDbSymbolTableRecord
100
AcDbTextStyleTableRecord
  2
Aktuell-BSI
 70
     0
 40
0.0
 41
1.0
 50
0.0
 71
     0
 42
0.2
  3
ARIAL.TTF
  4

1001
ACAD
1000
Arial
1071
      256
  0
STYLE
  5
C5
330
3
100
AcDbSymbolTableRecord
100
AcDbTextStyleTableRecord
  2
Kopie von TC 5 mm
 70
     0
 40
0.0
 41
1.199999928474426
 50
0.0
 71
     0
 42
0.2
  3
ARIAL.TTF
  4

1001
ACAD
1000
Arial
1071
      256
  0
STYLE
  5
C6
330
3
100
AcDbSymbolTableRecord
100
AcDbTextStyleTableRecord
  2
STANDARD-TC_020513_DIN
 70
     0
 40
0.0
 41
1.0
 50
0.0
 71
     0
 42
0.2
  3
ARIAL.TTF
  4

1001
ACAD
1000
Arial
1071
      256
  0
STYLE
  5
C7
330
3
100
AcDbSymbolTableRecord
100
AcDbTextStyleTableRecord
  2
STANDARD-TC_020513_DINGroßer Text
 70
     0
 40
0.0
 41
1.0
 50
0.0
 71
     0
 42
0.2
  3
ARIAL.TTF
  4

1001
ACAD
1000
Arial
1071
      256
  0
STYLE
  5
C8
330
3
100
AcDbSymbolTableRecord
100
AcDbTextStyleTableRecord
  2
STANDARD-TC_020513_DINNach Layer
 70
     0
 40
0.0
 41
1.0
 50
0.0
 71
     0
 42
0.2
  3
ARIAL.TTF
  4

1001
ACAD
1000
Arial
1071
      256
  0
STYLE
  5
C9
330
3
100
AcDbSymbolTableRecord
100
AcDbTextStyleTableRecord
  2
TC 2_5 mm
 70
     0
 40
0.0
 41
0.899999976158142
 50
0.0
 71
     0
 42
0.2
  3
ARIAL.TTF
  4

1001
ACAD
1000
Arial
1071
      256
  0
STYLE
  5
CA
330
3
100
AcDbSymbolTableRecord
100
AcDbTextStyleTableRecord
  2
TC 3_5 mm
 70
     0
 40
0.0
 41
0.7999999523162842
 50
0.0
 71
     0
 42
0.2
  3
ARIAL.TTF
  4

1001
ACAD
1000
Arial
1071
      256
  0
STYLE
  5
CB
330
3
100
AcDbSymbolTableRecord
100
AcDbTextStyleTableRecord
  2
TC 3_5 mmGroßer Text
 70
     0
 40
0.0
 41
0.899999976158142
 50
0.0
 71
     0
 42
0.2
  3
ARIAL.TTF
  4

1001
ACAD
1000
Arial
1071
      256
  0
STYLE
  5
CC
330
3
100
AcDbSymbolTableRecord
100
AcDbTextStyleTableRecord
  2
TC 3_5 mmNach Layer
 70
     0
 40
0.0
 41
0.899999976158142
 50
0.0
 71
     0
 42
0.2
  3
ARIAL.TTF
  4

1001
ACAD
1000
Arial
1071
      256
  0
STYLE
  5
CD
330
3
100
AcDbSymbolTableRecord
100
AcDbTextStyleTableRecord
  2
TC 4 mm
 70
     0
 40
0.0
 41
1.199999928474426
 50
0.0
 71
     0
 42
0.2
  3
ARIAL.TTF
  4

1001
ACAD
1000
Arial
1071
      256
  0
STYLE
  5
CE
330
3
100
AcDbSymbolTableRecord
100
AcDbTextStyleTableRecord
  2
TC 5 mm
 70
     0
 40
0.0
 41
0.899999976158142
 50
0.0
 71
     0
 42
0.2
  3
ARIAL.TTF
  4

1001
ACAD
1000
Arial
1071
      256
  0
STYLE
  5
CF
330
3
100
AcDbSymbolTableRecord
100
AcDbTextStyleTableRecord
  2
TC 5 mmNach Layer
 70
     0
 40
0.0
 41
0.899999976158142
 50
0.0
 71
     0
 42
0.2
  3
ARIAL.TTF
  4

1001
ACAD
1000
Arial
1071
      256
  0
STYLE
  5
D0
330
3
100
AcDbSymbolTableRecord
100
AcDbTextStyleTableRecord
  2
TC 7 mm
 70
     0
 40
0.0
 41
0.899999976158142
 50
0.0
 71
     0
 42
0.2
  3
ARIAL.TTF
  4

1001
ACAD
1000
Arial
1071
      256
  0
STYLE
  5
F9
330
3
100
AcDbSymbolTableRecord
100
AcDbTextStyleTableRecord
  2
TC 2_5 mm-ISOCPEUR
 70
     0
 40
0.0
 41
0.899999976158142
 50
0.0
 71
     0
 42
0.2
  3
isocpeur.ttf
  4

1001
ACAD
1000
ISOCPEUR
1071
      256
  0
STYLE
  5
FD
330
3
100
AcDbSymbolTableRecord
100
AcDbTextStyleTableRecord
  2
TC 3_5 mm-ISOCPEUR
 70
     0
 40
0.0
 41
0.899999976158142
 50
0.0
 71
     0
 42
0.2
  3
isocpeur.ttf
  4

1001
ACAD
1000
ISOCPEUR
1071
      256
  0
ENDTAB
  0
TABLE
  2
VIEW
  5
6
330
0
100
AcDbSymbolTable
 70
     0
  0
ENDTAB
  0
TABLE
  2
UCS
  5
7
330
0
100
AcDbSymbolTable
 70
     0
  0
ENDTAB
  0
TABLE
  2
APPID
  5
9
330
0
100
AcDbSymbolTable
 70
     1
  0
APPID
  5
27
330
9
100
AcDbSymbolTableRecord
100
AcDbRegAppTableRecord
  2
ACAD
 70
     0
  0
ENDTAB
  0
TABLE
  2
DIMSTYLE
  5
A
330
0
100
AcDbSymbolTable
 70
    17
100
AcDbDimStyleTable
 71
     2
340
D1
340
3F
  0
DIMSTYLE
105
3F
330
A
100
AcDbSymbolTableRecord
100
AcDbDimStyleTableRecord
  2
Standard
 70
     0
340
26
  0
DIMSTYLE
105
D1
102
{ACAD_REACTORS
330
3B5
330
47B
330
540
330
605
330
6CA
330
7A9
330
871
330
936
330
9FB
102
}
330
A
100
AcDbSymbolTableRecord
100
AcDbDimStyleTableRecord
  2
STANDARD-TC_020513_DIN
 70
     0
 40
2.0
 41
2.5
 42
1.0
 43
6.0
 44
2.0
 45
0.00000001
 46
10.0
 73
     0
 74
     0
 77
     1
 78
    12
 79
     3
140
3.5
143
0.03937
147
0.8
171
     3
172
     1
176
     7
177
     7
178
     7
271
     2
272
     2
274
     3
278
    44
340
C4
371
    25
372
    25
  0
DIMSTYLE
105
D2
330
A
100
AcDbSymbolTableRecord
100
AcDbDimStyleTableRecord
  2
STANDARD-TC_020513_DIN$7
 70
     0
 40
2.0
 41
2.5
 42
1.0
 43
6.0
 44
2.0
 45
0.00000001
 46
10.0
 73
     0
 74
     0
 77
     1
 78
    12
 79
     3
140
3.5
143
0.03937
147
0.8
171
     3
172
     1
176
     7
177
     7
178
     7
271
     2
272
     2
274
     3
278
    44
340
C4
371
    25
372
    25
  0
DIMSTYLE
105
D3
330
A
100
AcDbSymbolTableRecord
100
AcDbDimStyleTableRecord
  2
STANDARD-TC_020513_DINGroßer Text
 70
     0
 40
2.0
 41
5.0
 42
0.0
 43
6.0
 44
3.174999999999999
 45
0.00000001
 46
10.0
 73
     0
 74
     0
 77
     1
140
5.25
143
0.03937
146
0.6666666666666666
147
0.8
171
     3
172
     1
176
     7
177
     7
178
     7
271
     2
272
     2
274
     3
278
    44
340
C7
371
    25
372
    25
  0
DIMSTYLE
105
D4
330
A
100
AcDbSymbolTableRecord
100
AcDbDimStyleTableRecord
  2
STANDARD-TC_020513_DINGroßer Text$7
 70
     0
 40
2.0
 41
5.0
 42
0.0
 43
6.0
 44
3.174999999999999
 45
0.00000001
 46
10.0
 73
     0
 74
     0
 77
     1
140
5.25
143
0.03937
146
0.6666666666666666
147
0.8
171
     3
172
     1
176
     7
177
     7
178
     7
271
     2
272
     2
274
     3
278
    44
340
C7
371
    25
372
    25
  0
DIMSTYLE
105
D5
330
A
100
AcDbSymbolTableRecord
100
AcDbDimStyleTableRecord
  2
Teccon Kiel Stil
 70
     0
 40
2.0
 41
2.5
 42
0.0
 43
7.0
 44
2.0
 45
0.00000001
 46
10.0
 73
     0
 74
     0
 77
     1
 78
    12
 79
     3
140
3.5
143
0.03937
147
1.0
171
     3
172
     1
176
     7
177
     7
178
     7
179
     1
271
     1
272
     2
274
     3
278
    44
340
CA
371
    25
372
    25
  0
DIMSTYLE
105
D6
330
A
100
AcDbSymbolTableRecord
100
AcDbDimStyleTableRecord
  2
Teccon Kiel Stil$7
 70
     0
 40
2.0
 41
2.5
 42
0.0
 43
7.0
 44
2.0
 45
0.00000001
 46
10.0
 73
     0
 74
     0
 77
     1
 78
    12
 79
     3
140
3.5
143
0.03937
147
1.0
171
     3
172
     1
176
     7
177
     7
178
     7
179
     1
271
     1
272
     2
274
     3
278
    44
340
CA
371
    25
372
    25
  0
DIMSTYLE
105
D7
330
A
100
AcDbSymbolTableRecord
100
AcDbDimStyleTableRecord
  2
Teccon Kiel StilGroßer Text
 70
     0
 40
2.0
 41
5.0
 42
0.0
 43
7.0
 44
2.0
 45
0.00000001
 46
10.0
 73
     0
 74
     0
 77
     1
 78
    12
 79
     3
140
5.25
143
0.03937
146
0.6666666666666666
147
1.0
171
     3
172
     1
176
     7
177
     7
178
     7
179
     1
271
     1
272
     2
274
     3
278
    44
340
CB
371
    25
372
    25
  0
DIMSTYLE
105
D8
330
A
100
AcDbSymbolTableRecord
100
AcDbDimStyleTableRecord
  2
Teccon Kiel StilGroßer Text$7
 70
     0
 40
2.0
 41
5.0
 42
0.0
 43
7.0
 44
2.0
 45
0.00000001
 46
10.0
 73
     0
 74
     0
 77
     1
 78
    12
 79
     3
140
5.25
143
0.03937
146
0.6666666666666666
147
1.0
171
     3
172
     1
176
     7
177
     7
178
     7
179
     1
271
     1
272
     2
274
     3
278
    44
340
CB
371
    25
372
    25
  0
DIMSTYLE
105
D9
330
A
100
AcDbSymbolTableRecord
100
AcDbDimStyleTableRecord
  2
Führungslinie-Ursprungsindikator(ISO)
 70
     0
 40
2.0
 41
2.5
340
26
342
DA
  0
DIMSTYLE
105
E1
330
A
100
AcDbSymbolTableRecord
100
AcDbDimStyleTableRecord
  2
Führungslinie-Ursprungsindikator(TC_020513_DIN)
 70
     0
 40
2.0
 41
2.5
340
26
342
DA
  0
DIMSTYLE
105
EC
330
A
100
AcDbSymbolTableRecord
100
AcDbDimStyleTableRecord
  2
Führungslinie - Bezugsstelle(ISO)
 70
     0
 40
2.0
 41
2.5
340
26
342
DA
  0
DIMSTYLE
105
ED
330
A
100
AcDbSymbolTableRecord
100
AcDbDimStyleTableRecord
  2
Führungslinie - Bezugsstelle(TC_020513_DIN)
 70
     0
 40
2.0
 41
2.5
340
26
342
DA
  0
DIMSTYLE
105
EE
330
A
100
AcDbSymbolTableRecord
100
AcDbDimStyleTableRecord
  2
Führungslinie - Punkt(ISO)
 70
     0
 40
2.0
 41
2.5
340
26
342
DA
  0
DIMSTYLE
105
EF
330
A
100
AcDbSymbolTableRecord
100
AcDbDimStyleTableRecord
  2
Führungslinie - Punkt(TC_020513_DIN)
 70
     0
 40
2.0
 41
2.5
340
26
342
DA
  0
DIMSTYLE
105
F0
330
A
100
AcDbSymbolTableRecord
100
AcDbDimStyleTableRecord
  2
Führungslinie(ISO)
 70
     0
 40
2.0
 41
2.5
340
26
342
DA
  0
DIMSTYLE
105
F1
330
A
100
AcDbSymbolTableRecord
100
AcDbDimStyleTableRecord
  2
Führungslinie(TC_020513_DIN)
 70
     0
 40
2.0
 41
2.5
340
26
342
DA
  0
ENDTAB
  0
TABLE
  2
BLOCK_RECORD
  5
1
330
0
100
AcDbSymbolTable
 70
    20
  0
BLOCK_RECORD
  5
37
330
1
100
AcDbSymbolTableRecord
100
AcDbBlockTableRecord
  2
*Model_Space
340
3A
  0
BLOCK_RECORD
  5
33
330
1
100
AcDbSymbolTableRecord
100
AcDbBlockTableRecord
  2
*Paper_Space
340
36
  0
BLOCK_RECORD
  5
3B
330
1
100
AcDbSymbolTableRecord
100
AcDbBlockTableRecord
  2
*Paper_Space0
340
3E
  0
BLOCK_RECORD
  5
DA
330
1
100
AcDbSymbolTableRecord
100
AcDbBlockTableRecord
  2
_Closed
340
0
  0
BLOCK_RECORD
  5
E2
330
1
100
AcDbSymbolTableRecord
100
AcDbBlockTableRecord
  2
DatumFilled45
340
0
  0
BLOCK_RECORD
  5
F2
330
1
100
AcDbSymbolTableRecord
100
AcDbBlockTableRecord
  2
DIN 6930 (Toleranzklasse)
340
0
  0
BLOCK_RECORD
  5
103
330
1
100
AcDbSymbolTableRecord
100
AcDbBlockTableRecord
  2
nicht bemaßte Radien
340
0
  0
BLOCK_RECORD
  5
10C
330
1
100
AcDbSymbolTableRecord
100
AcDbBlockTableRecord
  2
DIN ISO 13715 (Werkstückkanten)
340
0
  0
BLOCK_RECORD
  5
130
330
1
100
AcDbSymbolTableRecord
100
AcDbBlockTableRecord
  2
EN 12329 (Chromatierung)
340
0
  0
BLOCK_RECORD
  5
138
330
1
100
AcDbSymbolTableRecord
100
AcDbBlockTableRecord
  2
ISO 2768 (zul. Abweichung)
340
0
  0
BLOCK_RECORD
  5
141
330
1
100
AcDbSymbolTableRecord
100
AcDbBlockTableRecord
  2
DIN ISO 1302 (Oberflächen)
340
0
  0
BLOCK_RECORD
  5
149
330
1
100
AcDbSymbolTableRecord
100
AcDbBlockTableRecord
  2
Ränder Ilme Rahmen A4 quer
340
0
102
{BLKREFS
331
153
102
}
  0
BLOCK_RECORD
  5
154
330
1
100
AcDbSymbolTableRecord
100
AcDbBlockTableRecord
  2
Schriftfelder Ilme
340
0
102
{BLKREFS
331
1C7
102
}
  0
BLOCK_RECORD
  5
3B7
330
1
100
AcDbSymbolTableRecord
100
AcDbBlockTableRecord
  2
*D11
340
0
  0
BLOCK_RECORD
  5
47C
330
1
100
AcDbSymbolTableRecord
100
AcDbBlockTableRecord
  2
*D12
340
0
  0
BLOCK_RECORD
  5
541
330
1
100
AcDbSymbolTableRecord
100
AcDbBlockTableRecord
  2
*D13
340
0
  0
BLOCK_RECORD
  5
606
330
1
100
AcDbSymbolTableRecord
100
AcDbBlockTableRecord
  2
*D14
340
0
  0
BLOCK_RECORD
  5
6CB
330
1
100
AcDbSymbolTableRecord
100
AcDbBlockTableRecord
  2
*D15
340
0
  0
BLOCK_RECORD
  5
7AA
330
1
100
AcDbSymbolTableRecord
100
AcDbBlockTableRecord
  2
*D16
340
0
  0
BLOCK_RECORD
  5
872
330
1
100
AcDbSymbolTableRecord
100
AcDbBlockTableRecord
  2
*D17
340
0
  0
BLOCK_RECORD
  5
937
330
1
100
AcDbSymbolTableRecord
100
AcDbBlockTableRecord
  2
*D18
340
0
  0
BLOCK_RECORD
  5
9FC
330
1
100
AcDbSymbolTableRecord
100
AcDbBlockTableRecord
  2
*D19
340
0
  0
ENDTAB
  0
ENDSEC
  0
SECTION
  2
BLOCKS
  0
BLOCK
  5
38
330
37
100
AcDbEntity
  8
0
100
AcDbBlockBegin
  2
*Model_Space
 70
     0
 10
0.0
 20
0.0
 30
0.0
  3
*Model_Space
  1

  0
ENDBLK
  5
39
330
37
100
AcDbEntity
  8
0
100
AcDbBlockEnd
  0
BLOCK
  5
34
330
33
100
AcDbEntity
 67
     1
  8
0
100
AcDbBlockBegin
  2
*Paper_Space
 70
     0
 10
0.0
 20
0.0
 30
0.0
  3
*Paper_Space
  1

  0
ENDBLK
  5
35
330
33
100
AcDbEntity
 67
     1
  8
0
100
AcDbBlockEnd
  0
BLOCK
  5
3C
330
3B
100
AcDbEntity
 67
     1
  8
0
100
AcDbBlockBegin
  2
*Paper_Space0
 70
     0
 10
0.0
 20
0.0
 30
0.0
  3
*Paper_Space0
  1

  0
ENDBLK
  5
3D
330
3B
100
AcDbEntity
 67
     1
  8
0
100
AcDbBlockEnd
  0
BLOCK
  5
DF
330
DA
100
AcDbEntity
  8
0
100
AcDbBlockBegin
  2
_Closed
 70
     0
 10
0.0
 20
0.0
 30
0.0
  3
_Closed
  1

  0
LINE
  5
DB
330
DA
100
AcDbEntity
  8
0
  6
ByBlock
 62
     0
370
    -2
100
AcDbLine
 10
-1.0
 20
0.1666666666666666
 30
0.0
 11
0.0
 21
0.0
 31
0.0
  0
LINE
  5
DC
330
DA
100
AcDbEntity
  8
0
  6
ByBlock
 62
     0
370
    -2
100
AcDbLine
 10
0.0
 20
0.0
 30
0.0
 11
-1.0
 21
-0.1666666666666666
 31
0.0
  0
LINE
  5
DD
330
DA
100
AcDbEntity
  8
0
  6
ByBlock
 62
     0
370
    -2
100
AcDbLine
 10
-1.0
 20
0.1666666666666666
 30
0.0
 11
-1.0
 21
-0.1666666666666666
 31
0.0
  0
LINE
  5
DE
330
DA
100
AcDbEntity
  8
0
  6
ByBlock
 62
     0
370
    -2
100
AcDbLine
 10
0.0
 20
0.0
 30
0.0
 11
-1.0
 21
0.0
 31
0.0
  0
ENDBLK
  5
E0
330
DA
100
AcDbEntity
  8
0
100
AcDbBlockEnd
  0
BLOCK
  5
E3
330
E2
100
AcDbEntity
  8
0
100
AcDbBlockBegin
  2
DatumFilled45
 70
     0
 10
0.0
 20
0.0
 30
0.0
  3
DatumFilled45
  1

  0
POLYLINE
  5
E5
330
E2
100
AcDbEntity
  8
0
 62
     0
100
AcDb2dPolyline
 66
     1
 10
0.0
 20
0.0
 30
0.0
 70
   128
  0
VERTEX
  5
E6
330
E5
100
AcDbEntity
  8
0
 62
     0
100
AcDbVertex
100
AcDb2dVertex
 10
0.0
 20
1.0
 30
0.0
  0
VERTEX
  5
E7
330
E5
100
AcDbEntity
  8
0
 62
     0
100
AcDbVertex
100
AcDb2dVertex
 10
0.0
 20
-1.0
 30
0.0
  0
VERTEX
  5
E9
330
E5
100
AcDbEntity
  8
0
 62
     0
100
AcDbVertex
100
AcDb2dVertex
 10
-1.0
 20
0.0
 30
0.0
  0
VERTEX
  5
EA
330
E5
100
AcDbEntity
  8
0
 62
     0
100
AcDbVertex
100
AcDb2dVertex
 10
0.0
 20
1.0
 30
0.0
  0
SEQEND
  5
E8
330
E5
100
AcDbEntity
  8
0
 62
     0
  0
SOLID
  5
EB
330
E2
100
AcDbEntity
  8
0
 62
     0
100
AcDbTrace
 10
0.0
 20
1.0
 30
0.0
 11
0.0
 21
-1.0
 31
0.0
 12
-1.0
 22
0.0
 32
0.0
 13
0.0
 23
1.0
 33
0.0
  0
ENDBLK
  5
E4
330
E2
100
AcDbEntity
  8
0
100
AcDbBlockEnd
  0
BLOCK
  5
F3
330
F2
100
AcDbEntity
  8
0
100
AcDbBlockBegin
  2
DIN 6930 (Toleranzklasse)
 70
     2
 10
0.0
 20
0.0
 30
0.0
  3
DIN 6930 (Toleranzklasse)
  1

  0
LINE
  5
F5
330
F2
100
AcDbEntity
  8
Skizziergeometrie(ISO)
100
AcDbLine
 10
-49.99999999999999
 20
24.99999999999996
 30
0.0
 11
0.0
 21
24.99999999999996
 31
0.0
  0
LINE
  5
F6
330
F2
100
AcDbEntity
  8
Skizziergeometrie(ISO)
100
AcDbLine
 10
0.0
 20
24.99999999999996
 30
0.0
 11
0.0
 21
0.0
 31
0.0
  0
LINE
  5
F7
330
F2
100
AcDbEntity
  8
Skizziergeometrie(ISO)
100
AcDbLine
 10
0.0
 20
0.0
 30
0.0
 11
-49.99999999999999
 21
0.0
 31
0.0
  0
LINE
  5
F8
330
F2
100
AcDbEntity
  8
Skizziergeometrie(ISO)
100
AcDbLine
 10
-49.99999999999999
 20
0.0
 30
0.0
 11
-49.99999999999999
 21
24.99999999999996
 31
0.0
  0
MTEXT
  5
FA
102
{ACAD_XDICTIONARY
360
AD5
102
}
330
F2
100
AcDbEntity
  8
Symbole(ISO)
 62
     7
100
AcDbMText
 10
-25.01617139266887
 20
22.49496284479633
 30
0.0
 40
2.5
 41
49.93534911063455
 71
     5
 72
     1
  1
F\U+00FCr spanlose Bearbeitung
  7
TC 2_5 mm-ISOCPEUR
 73
     1
 44
1.0
1001
ACAD
1000
MTEXTBEGIN
1070
    73
1070
     1
1070
    44
1040
1.0
1070
    74
1070
     0
1000
MTEXTEND
  0
MTEXT
  5
FC
330
F2
100
AcDbEntity
  8
Symbole(ISO)
 62
     7
100
AcDbMText
 10
-24.96550299476308
 20
17.97814514565743
 30
0.0
 40
2.5
 41
49.94698265738096
 71
     5
 72
     1
  1
Allgemeintoleranz
  7
TC 2_5 mm-ISOCPEUR
 73
     1
 44
1.0
1001
ACAD
1000
MTEXTBEGIN
1070
    73
1070
     1
1070
    44
1040
1.0
1070
    74
1070
     0
1000
MTEXTEND
  0
MTEXT
  5
FE
330
F2
100
AcDbEntity
  8
Symbole(ISO)
 62
     7
100
AcDbMText
 10
-22.00032990803074
 20
12.97814514565747
 30
0.0
 40
3.499999940395355
 41
28.04641142085023
 71
     6
 72
     1
  1
DIN 6930-
  7
TC 3_5 mm-ISOCPEUR
 73
     1
 44
1.0
1001
ACAD
1000
MTEXTBEGIN
1070
    73
1070
     1
1070
    44
1040
1.0
1070
    74
1070
     0
1000
MTEXTEND
  0
MTEXT
  5
FF
330
F2
100
AcDbEntity
  8
Symbole(ISO)
 62
     7
100
AcDbMText
 10
-24.98510412015335
 20
5.018941170990345
 30
0.0
 40
2.5
 41
50.05946813167525
 71
     5
 72
     1
  1
(zul. Abweichung der\PWinkelstellung DIN 6935)
  7
TC 2_5 mm-ISOCPEUR
 73
     2
 44
1.068348169326782
1001
ACAD
1000
MTEXTBEGIN
1070
    73
1070
     2
1070
    44
1040
1.068348169326782
1070
    74
1070
     0
1000
MTEXTEND
  0
ATTDEF
  5
100
330
F2
100
AcDbEntity
  8
Symbole(ISO)
 62
     7
100
AcDbText
 10
-21.93383492465724
 20
11.2184168455105
 30
0.0
 40
3.499999940395355
  1
 
 41
0.899999976158142
  7
TC 3_5 mm-ISOCPEUR
 11
-21.93383492465724
 21
12.96841681570818
 31
0.0
100
AcDbAttributeDefinition
  3
Toleranzklasse
  2
Toleranzklasse
 70
     0
 74
     2
  0
ENDBLK
  5
F4
330
F2
100
AcDbEntity
  8
0
100
AcDbBlockEnd
  0
BLOCK
  5
104
330
103
100
AcDbEntity
  8
0
100
AcDbBlockBegin
  2
nicht bemaßte Radien
 70
     2
 10
0.0
 20
0.0
 30
0.0
  3
nicht bemaßte Radien
  1

  0
LINE
  5
106
330
103
100
AcDbEntity
  8
Skizziergeometrie(ISO)
100
AcDbLine
 10
0.0
 20
0.0
 30
0.0
 11
-50.0
 21
0.0
 31
0.0
  0
LINE
  5
107
330
103
100
AcDbEntity
  8
Skizziergeometrie(ISO)
100
AcDbLine
 10
-50.0
 20
0.0
 30
0.0
 11
-50.0
 21
5.0
 31
0.0
  0
LINE
  5
108
330
103
100
AcDbEntity
  8
Skizziergeometrie(ISO)
100
AcDbLine
 10
-50.0
 20
5.0
 30
0.0
 11
0.0
 21
5.0
 31
0.0
  0
LINE
  5
109
330
103
100
AcDbEntity
  8
Skizziergeometrie(ISO)
100
AcDbLine
 10
0.0
 20
5.0
 30
0.0
 11
0.0
 21
0.0
 31
0.0
  0
MTEXT
  5
10A
102
{ACAD_XDICTIONARY
360
AD7
102
}
330
103
100
AcDbEntity
  8
Symbole(ISO)
 62
     7
100
AcDbMText
 10
-28.98102517277721
 20
2.530616500783118
 30
0.0
 40
2.5
 41
41.95492584233122
 71
     5
 72
     1
  1
Alle nicht bema\U+00DFten Radien R
  7
TC 2_5 mm-ISOCPEUR
 73
     1
 44
1.0
1001
ACAD
1000
MTEXTBEGIN
1070
    73
1070
     1
1070
    44
1040
1.0
1070
    74
1070
     0
1000
MTEXTEND
  0
ATTDEF
  5
10B
330
103
100
AcDbEntity
  8
Symbole(ISO)
 62
     7
100
AcDbText
 10
-4.624331584212832
 20
1.293984431277515
 30
0.0
 40
2.5
  1
 
 41
0.899999976158142
  7
TC 2_5 mm-ISOCPEUR
 72
     1
 11
-3.949331602094225
 21
2.543984431277515
 31
0.0
100
AcDbAttributeDefinition
  3
Radius
  2
Radius
 70
     0
 74
     2
  0
ENDBLK
  5
105
330
103
100
AcDbEntity
  8
0
100
AcDbBlockEnd
  0
BLOCK
  5
10D
330
10C
100
AcDbEntity
  8
0
100
AcDbBlockBegin
  2
DIN ISO 13715 (Werkstückkanten)
 70
     2
 10
0.0
 20
0.0
 30
0.0
  3
DIN ISO 13715 (Werkstückkanten)
  1

  0
LINE
  5
10F
102
{ACAD_REACTORS
330
112
102
}
330
10C
100
AcDbEntity
  8
0
100
AcDbLine
 10
-35.0
 20
20.0
 30
0.0
 11
-32.75944236602587
 21
21.71924034067061
 31
0.0
  0
LINE
  5
110
102
{ACAD_REACTORS
330
112
102
}
330
10C
100
AcDbEntity
  8
0
100
AcDbLine
 10
-33.28075965932943
 20
22.24055763397416
 30
0.0
 11
-35.0
 21
20.0
 31
0.0
  0
LINE
  5
111
102
{ACAD_REACTORS
330
112
102
}
330
10C
100
AcDbEntity
  8
0
100
AcDbLine
 10
-32.75944236602587
 20
21.71924034067061
 30
0.0
 11
-33.28075965932943
 21
22.24055763397416
 31
0.0
  0
HATCH
  5
112
330
10C
100
AcDbEntity
  8
Schraffur
 62
     7
100
AcDbHatch
 10
0.0
 20
0.0
 30
0.0
210
0.0
220
0.0
230
1.0
  2
SOLID
 70
     1
 71
     1
 91
        1
 92
        1
 93
        3
 72
     1
 10
-35.0
 20
20.0
 11
-32.75944236602587
 21
21.71924034067061
 72
     1
 10
-32.75944236602587
 20
21.71924034067061
 11
-33.28075965932943
 21
22.24055763397416
 72
     1
 10
-33.28075965932943
 20
22.24055763397416
 11
-35.0
 21
20.0
 97
        3
330
10F
330
111
330
110
 75
     0
 76
     1
 98
        1
 10
0.0
 20
0.0
  0
LINE
  5
113
102
{ACAD_REACTORS
330
116
102
}
330
10C
100
AcDbEntity
  8
0
100
AcDbLine
 10
-20.00000000000003
 20
20.00000000000003
 30
0.0
 11
-17.7594423660259
 21
21.71924034067057
 31
0.0
  0
LINE
  5
114
102
{ACAD_REACTORS
330
116
102
}
330
10C
100
AcDbEntity
  8
0
100
AcDbLine
 10
-18.28075965932939
 20
22.24055763397406
 30
0.0
 11
-20.00000000000003
 21
20.00000000000003
 31
0.0
  0
LINE
  5
115
102
{ACAD_REACTORS
330
116
102
}
330
10C
100
AcDbEntity
  8
0
100
AcDbLine
 10
-17.7594423660259
 20
21.71924034067057
 30
0.0
 11
-18.28075965932939
 21
22.24055763397406
 31
0.0
  0
HATCH
  5
116
330
10C
100
AcDbEntity
  8
Schraffur
 62
     7
100
AcDbHatch
 10
0.0
 20
0.0
 30
0.0
210
0.0
220
0.0
230
1.0
  2
SOLID
 70
     1
 71
     1
 91
        1
 92
        1
 93
        3
 72
     1
 10
-20.00000000000003
 20
20.00000000000003
 11
-17.7594423660259
 21
21.71924034067057
 72
     1
 10
-17.7594423660259
 20
21.71924034067057
 11
-18.28075965932939
 21
22.24055763397406
 72
     1
 10
-18.28075965932939
 20
22.24055763397406
 11
-20.00000000000003
 21
20.00000000000003
 97
        3
330
113
330
115
330
114
 75
     0
 76
     1
 98
        1
 10
0.0
 20
0.0
  0
LINE
  5
117
330
10C
100
AcDbEntity
  8
Skizziergeometrie(ISO)
100
AcDbLine
 10
-39.89999999999998
 20
20.0
 30
0.0
 11
-35.0
 21
20.0
 31
0.0
  0
LINE
  5
118
330
10C
100
AcDbEntity
  8
Skizziergeometrie(ISO)
100
AcDbLine
 10
-35.0
 20
20.0
 30
0.0
 11
-34.99999999999996
 21
15.09999999999998
 31
0.0
  0
LINE
  5
119
330
10C
100
AcDbEntity
  8
Skizziergeometrie(ISO)
100
AcDbLine
 10
-20.00000000000003
 20
20.00000000000003
 30
0.0
 11
-15.10000000000005
 21
20.00000000000003
 31
0.0
  0
LINE
  5
11A
330
10C
100
AcDbEntity
  8
Skizziergeometrie(ISO)
100
AcDbLine
 10
-20.00000000000003
 20
20.00000000000003
 30
0.0
 11
-20.00000000000003
 21
24.90000000000002
 31
0.0
  0
LINE
  5
11B
330
10C
100
AcDbEntity
  8
Skizziergeometrie(ISO)
100
AcDbLine
 10
-35.0
 20
20.0
 30
0.0
 11
-31.28768939877062
 21
23.71231060122938
 31
0.0
  0
LINE
  5
11C
330
10C
100
AcDbEntity
  8
Skizziergeometrie(ISO)
100
AcDbLine
 10
-31.28768939877062
 20
23.71231060122938
 30
0.0
 11
-26.3876893987706
 21
23.71231060122938
 31
0.0
  0
LINE
  5
11D
330
10C
100
AcDbEntity
  8
Skizziergeometrie(ISO)
100
AcDbLine
 10
-35.0
 20
20.0
 30
0.0
 11
-33.28075965932943
 21
22.24055763397416
 31
0.0
  0
LINE
  5
11E
330
10C
100
AcDbEntity
  8
Skizziergeometrie(ISO)
100
AcDbLine
 10
-33.28075965932943
 20
22.24055763397416
 30
0.0
 11
-32.75944236602587
 21
21.71924034067061
 31
0.0
  0
LINE
  5
11F
330
10C
100
AcDbEntity
  8
Skizziergeometrie(ISO)
100
AcDbLine
 10
-32.75944236602587
 20
21.71924034067061
 30
0.0
 11
-35.0
 21
20.0
 31
0.0
  0
LINE
  5
120
330
10C
100
AcDbEntity
  8
Skizziergeometrie(ISO)
100
AcDbLine
 10
-31.28768939877062
 20
23.71231060122938
 30
0.0
 11
-31.28768939877062
 21
28.61231060122936
 31
0.0
  0
LINE
  5
121
330
10C
100
AcDbEntity
  8
Skizziergeometrie(ISO)
100
AcDbLine
 10
-18.02010101267761
 20
21.97989898732235
 30
0.0
 11
-16.28768939877059
 21
23.71231060122938
 31
0.0
  0
LINE
  5
122
330
10C
100
AcDbEntity
  8
Skizziergeometrie(ISO)
100
AcDbLine
 10
-16.28768939877059
 20
23.71231060122938
 30
0.0
 11
-11.3876893987706
 21
23.71231060122938
 31
0.0
  0
LINE
  5
123
330
10C
100
AcDbEntity
  8
Skizziergeometrie(ISO)
100
AcDbLine
 10
-20.00000000000003
 20
20.00000000000003
 30
0.0
 11
-18.28075965932939
 21
22.24055763397406
 31
0.0
  0
LINE
  5
124
330
10C
100
AcDbEntity
  8
Skizziergeometrie(ISO)
100
AcDbLine
 10
-18.28075965932939
 20
22.24055763397406
 30
0.0
 11
-17.7594423660259
 21
21.71924034067057
 31
0.0
  0
LINE
  5
125
330
10C
100
AcDbEntity
  8
Skizziergeometrie(ISO)
100
AcDbLine
 10
-17.7594423660259
 20
21.71924034067057
 30
0.0
 11
-20.00000000000003
 21
20.00000000000003
 31
0.0
  0
LINE
  5
126
330
10C
100
AcDbEntity
  8
Skizziergeometrie(ISO)
100
AcDbLine
 10
-16.28768939877059
 20
23.71231060122938
 30
0.0
 11
-16.28768939877059
 21
28.61231060122936
 31
0.0
  0
LINE
  5
127
330
10C
100
AcDbEntity
  8
Skizziergeometrie(ISO)
100
AcDbLine
 10
-49.99999999999999
 20
35.0
 30
0.0
 11
0.0
 21
35.0
 31
0.0
  0
LINE
  5
128
330
10C
100
AcDbEntity
  8
Skizziergeometrie(ISO)
100
AcDbLine
 10
0.0
 20
35.0
 30
0.0
 11
0.0
 21
0.0
 31
0.0
  0
LINE
  5
129
330
10C
100
AcDbEntity
  8
Skizziergeometrie(ISO)
100
AcDbLine
 10
0.0
 20
0.0
 30
0.0
 11
-49.99999999999999
 21
0.0
 31
0.0
  0
LINE
  5
12A
330
10C
100
AcDbEntity
  8
Skizziergeometrie(ISO)
100
AcDbLine
 10
-49.99999999999999
 20
0.0
 30
0.0
 11
-49.99999999999999
 21
35.0
 31
0.0
  0
MTEXT
  5
12B
102
{ACAD_XDICTIONARY
360
AD9
102
}
330
10C
100
AcDbEntity
  8
Symbole(ISO)
 62
     7
100
AcDbMText
 10
-24.97893135154584
 20
10.23779293592927
 30
0.0
 40
3.499999940395355
 41
49.9873458157533
 71
     5
 72
     1
  1
Werkst\U+00FCckkanten\Pnach ISO 13715
  7
TC 3_5 mm-ISOCPEUR
 73
     2
 44
1.068348169326782
1001
ACAD
1000
MTEXTBEGIN
1070
    73
1070
     2
1070
    44
1040
1.068348169326782
1070
    74
1070
     0
1000
MTEXTEND
  0
ATTDEF
  5
12C
330
10C
100
AcDbEntity
  8
Symbole(ISO)
 62
     7
100
AcDbText
 10
-30.16177492853139
 20
24.5808246293851
 30
0.0
 40
2.5
  1
 
 41
0.899999976158142
  7
TC 2_5 mm-ISOCPEUR
 11
-30.16177492853139
 21
25.8308246293851
 31
0.0
100
AcDbAttributeDefinition
  3
AK unten
  2
AK_unten
 70
     0
 74
     2
  0
ATTDEF
  5
12D
330
10C
100
AcDbEntity
  8
Symbole(ISO)
 62
     7
100
AcDbText
 10
-30.17792390794348
 20
27.58528770975683
 30
0.0
 40
2.5
  1
 
 41
0.899999976158142
  7
TC 2_5 mm-ISOCPEUR
 11
-30.17792390794348
 21
28.83528770975683
 31
0.0
100
AcDbAttributeDefinition
  3
AK oben
  2
AK_oben
 70
     0
 74
     2
  0
ATTDEF
  5
12E
330
10C
100
AcDbEntity
  8
Symbole(ISO)
 62
     7
100
AcDbText
 10
-15.11922386270676
 20
24.61259748150297
 30
0.0
 40
2.5
  1
 
 41
0.899999976158142
  7
TC 2_5 mm-ISOCPEUR
 11
-15.11922386270676
 21
25.86259748150297
 31
0.0
100
AcDbAttributeDefinition
  3
IK unten
  2
IK_unten
 70
     0
 74
     2
  0
ATTDEF
  5
12F
330
10C
100
AcDbEntity
  8
Symbole(ISO)
 62
     7
100
AcDbText
 10
-15.14487582203273
 20
27.61806754523864
 30
0.0
 40
2.5
  1
 
 41
0.899999976158142
  7
TC 2_5 mm-ISOCPEUR
 11
-15.14487582203273
 21
28.86806754523864
 31
0.0
100
AcDbAttributeDefinition
  3
IK oben
  2
IK_oben
 70
     0
 74
     2
  0
ENDBLK
  5
10E
330
10C
100
AcDbEntity
  8
0
100
AcDbBlockEnd
  0
BLOCK
  5
131
330
130
100
AcDbEntity
  8
0
100
AcDbBlockBegin
  2
EN 12329 (Chromatierung)
 70
     0
 10
0.0
 20
0.0
 30
0.0
  3
EN 12329 (Chromatierung)
  1

  0
LINE
  5
133
330
130
100
AcDbEntity
  8
Skizziergeometrie(ISO)
100
AcDbLine
 10
0.0
 20
0.0
 30
0.0
 11
-50.0
 21
0.0
 31
0.0
  0
LINE
  5
134
330
130
100
AcDbEntity
  8
Skizziergeometrie(ISO)
100
AcDbLine
 10
-50.0
 20
0.0
 30
0.0
 11
-50.0
 21
15.0
 31
0.0
  0
LINE
  5
135
330
130
100
AcDbEntity
  8
Skizziergeometrie(ISO)
100
AcDbLine
 10
-50.0
 20
15.0
 30
0.0
 11
0.0
 21
15.00000000000003
 31
0.0
  0
LINE
  5
136
330
130
100
AcDbEntity
  8
Skizziergeometrie(ISO)
100
AcDbLine
 10
0.0
 20
15.00000000000003
 30
0.0
 11
0.0
 21
0.0
 31
0.0
  0
MTEXT
  5
137
330
130
100
AcDbEntity
  8
Symbole(ISO)
 62
     7
100
AcDbMText
 10
-24.98833105758937
 20
7.490142772208123
 30
0.0
 40
2.5
 41
49.83545872181219
 71
     5
 72
     1
  1
Verzinkt FE / ZN / C\PEN 12329\P(gelb chromatiert)
  7
TC 2_5 mm-ISOCPEUR
 73
     2
 44
1.068348169326782
1001
ACAD
1000
MTEXTBEGIN
1070
    73
1070
     2
1070
    44
1040
1.068348169326782
1070
    74
1070
     0
1000
MTEXTEND
  0
ENDBLK
  5
132
330
130
100
AcDbEntity
  8
0
100
AcDbBlockEnd
  0
BLOCK
  5
139
330
138
100
AcDbEntity
  8
0
100
AcDbBlockBegin
  2
ISO 2768 (zul. Abweichung)
 70
     2
 10
0.0
 20
0.0
 30
0.0
  3
ISO 2768 (zul. Abweichung)
  1

  0
LINE
  5
13B
330
138
100
AcDbEntity
  8
Skizziergeometrie(ISO)
100
AcDbLine
 10
-26.0
 20
0.0
 30
0.0
 11
0.0
 21
0.0
 31
0.0
  0
LINE
  5
13C
330
138
100
AcDbEntity
  8
Skizziergeometrie(ISO)
100
AcDbLine
 10
0.0
 20
0.0
 30
0.0
 11
0.0
 21
17.0
 31
0.0
  0
LINE
  5
13D
330
138
100
AcDbEntity
  8
Skizziergeometrie(ISO)
100
AcDbLine
 10
0.0
 20
17.0
 30
0.0
 11
-26.0
 21
17.0
 31
0.0
  0
LINE
  5
13E
330
138
100
AcDbEntity
  8
Skizziergeometrie(ISO)
100
AcDbLine
 10
-26.0
 20
17.0
 30
0.0
 11
-26.0
 21
0.0
 31
0.0
  0
MTEXT
  5
13F
330
138
100
AcDbEntity
  8
Symbole(ISO)
 62
     7
100
AcDbMText
 10
-7.994454197588593
 20
5.526470854171373
 30
0.0
 40
2.5
 41
17.99309312940538
 71
     6
 72
     1
  1
ISO 2768-
  7
TC 2_5 mm-ISOCPEUR
 73
     1
 44
1.0
1001
ACAD
1000
MTEXTBEGIN
1070
    73
1070
     1
1070
    44
1040
1.0
1070
    74
1070
     0
1000
MTEXTEND
  0
ATTDEF
  5
140
330
138
100
AcDbEntity
  8
Symbole(ISO)
 62
     7
100
AcDbText
 10
-7.924832568762529
 20
4.240604076340716
 30
0.0
 40
2.5
  1
 
 41
0.899999976158142
  7
TC 2_5 mm-ISOCPEUR
 11
-7.924832568762529
 21
5.490604076340716
 31
0.0
100
AcDbAttributeDefinition
  3
Grad
  2
Grad
 70
     0
 74
     2
  0
ENDBLK
  5
13A
330
138
100
AcDbEntity
  8
0
100
AcDbBlockEnd
  0
BLOCK
  5
142
330
141
100
AcDbEntity
  8
0
100
AcDbBlockBegin
  2
DIN ISO 1302 (Oberflächen)
 70
     0
 10
0.0
 20
0.0
 30
0.0
  3
DIN ISO 1302 (Oberflächen)
  1

  0
LINE
  5
144
330
141
100
AcDbEntity
  8
Skizziergeometrie(ISO)
100
AcDbLine
 10
-18.19999999999999
 20
0.0
 30
0.0
 11
0.0
 21
0.0
 31
0.0
  0
LINE
  5
145
330
141
100
AcDbEntity
  8
Skizziergeometrie(ISO)
100
AcDbLine
 10
0.0
 20
0.0
 30
0.0
 11
0.0
 21
17.0
 31
0.0
  0
LINE
  5
146
330
141
100
AcDbEntity
  8
Skizziergeometrie(ISO)
100
AcDbLine
 10
0.0
 20
17.0
 30
0.0
 11
-18.2
 21
17.0
 31
0.0
  0
LINE
  5
147
330
141
100
AcDbEntity
  8
Skizziergeometrie(ISO)
100
AcDbLine
 10
-18.2
 20
17.0
 30
0.0
 11
-18.19999999999999
 21
0.0
 31
0.0
  0
MTEXT
  5
148
330
141
100
AcDbEntity
  8
Symbole(ISO)
 62
     7
100
AcDbMText
 10
-9.137586403397849
 20
5.561325836084813
 30
0.0
 40
2.5
 41
18.21623868792871
 71
     5
 72
     1
  1
DIN ISO 1302
  7
TC 2_5 mm-ISOCPEUR
 73
     1
 44
1.0
1001
ACAD
1000
MTEXTBEGIN
1070
    73
1070
     1
1070
    44
1040
1.0
1070
    74
1070
     0
1000
MTEXTEND
  0
ENDBLK
  5
143
330
141
100
AcDbEntity
  8
0
100
AcDbBlockEnd
  0
BLOCK
  5
14A
330
149
100
AcDbEntity
  8
0
100
AcDbBlockBegin
  2
Ränder Ilme Rahmen A4 quer
 70
     0
 10
0.0
 20
0.0
 30
0.0
  3
Ränder Ilme Rahmen A4 quer
  1

  0
LINE
  5
14C
330
149
100
AcDbEntity
  8
Skizziergeometrie(ISO)
100
AcDbLine
 10
9.999999999999982
 20
9.999999999999952
 30
0.0
 11
10.00000000000001
 21
190.0
 31
0.0
  0
LINE
  5
14D
330
149
100
AcDbEntity
  8
Skizziergeometrie(ISO)
100
AcDbLine
 10
10.00000000000001
 20
190.0
 30
0.0
 11
287.0
 21
190.0
 31
0.0
  0
LINE
  5
14E
330
149
100
AcDbEntity
  8
Skizziergeometrie(ISO)
100
AcDbLine
 10
9.999999999999982
 20
9.999999999999952
 30
0.0
 11
287.0
 21
10.00000000000003
 31
0.0
  0
LINE
  5
14F
330
149
100
AcDbEntity
  8
Skizziergeometrie(ISO)
100
AcDbLine
 10
148.5
 20
210.0
 30
0.0
 11
148.5
 21
196.0
 31
0.0
  0
LINE
  5
150
330
149
100
AcDbEntity
  8
Skizziergeometrie(ISO)
100
AcDbLine
 10
287.0
 20
190.0
 30
0.0
 11
287.0
 21
10.00000000000003
 31
0.0
  0
MTEXT
  5
151
330
149
100
AcDbEntity
  8
Symbole(ISO)
 62
     7
100
AcDbMText
 10
148.5
 20
196.0
 30
0.0
 40
3.499999940395355
 41
0.0
 71
     2
 72
     1
  1
\fISOCPEUR|b0|i0;\H3.5000;    Diritti riservati     All rights reseved
  7
TC 2_5 mm
 73
     1
 44
1.0
1001
ACAD
1000
MTEXTBEGIN
1070
    73
1070
     1
1070
    44
1040
1.0
1070
    74
1070
     0
1000
MTEXTEND
  0
ENDBLK
  5
14B
330
149
100
AcDbEntity
  8
0
100
AcDbBlockEnd
  0
BLOCK
  5
155
330
154
100
AcDbEntity
  8
0
100
AcDbBlockBegin
  2
Schriftfelder Ilme
 70
     2
 10
0.0
 20
0.0
 30
0.0
  3
Schriftfelder Ilme
  1

  0
ARC
  5
157
102
{ACAD_REACTORS
330
15B
102
}
330
154
100
AcDbEntity
  8
0
100
AcDbCircle
 10
184.655189950303
 20
19.15390948356282
 30
10.0
 40
0.3333333333333996
100
AcDbArc
 50
0.0
 51
180.0
  0
LINE
  5
158
102
{ACAD_REACTORS
330
15B
102
}
330
154
100
AcDbEntity
  8
0
100
AcDbLine
 10
184.3218566169696
 20
15.84737070168959
 30
10.0
 11
184.3218566169696
 21
19.15390948356282
 31
10.0
  0
ARC
  5
159
102
{ACAD_REACTORS
330
15B
102
}
330
154
100
AcDbEntity
  8
0
100
AcDbCircle
 10
184.655189950303
 20
15.84737070168959
 30
10.0
 40
0.3333333333333997
100
AcDbArc
 50
180.0
 51
0.0
  0
LINE
  5
15A
102
{ACAD_REACTORS
330
15B
102
}
330
154
100
AcDbEntity
  8
0
100
AcDbLine
 10
184.9885232836365
 20
19.15390948356282
 30
10.0
 11
184.9885232836365
 21
15.84737070168959
 31
10.0
  0
HATCH
  5
15B
330
154
100
AcDbEntity
  8
Schraffur
 62
     7
100
AcDbHatch
 10
0.0
 20
0.0
 30
0.0
210
0.0
220
0.0
230
1.0
  2
SOLID
 70
     1
 71
     1
 91
        1
 92
        1
 93
        4
 72
     2
 10
184.655189950303
 20
19.15390948356282
 40
0.3333333333333996
 50
0.0
 51
180.0
 73
     1
 72
     1
 10
184.3218566169696
 20
19.15390948356282
 11
184.3218566169696
 21
15.84737070168959
 72
     2
 10
184.655189950303
 20
15.84737070168959
 40
0.3333333333333997
 50
180.0
 51
360.0
 73
     1
 72
     1
 10
184.9885232836365
 20
15.84737070168959
 11
184.9885232836365
 21
19.15390948356282
 97
        4
330
157
330
158
330
159
330
15A
 75
     0
 76
     1
 98
        1
 10
0.0
 20
0.0
  0
LINE
  5
15C
102
{ACAD_REACTORS
330
163
102
}
330
154
100
AcDbEntity
  8
0
100
AcDbLine
 10
188.4894939320861
 20
14.02010125116808
 30
0.0
 11
186.3218576257727
 21
15.27066065865696
 31
0.0
  0
ARC
  5
15D
102
{ACAD_REACTORS
330
163
102
}
330
154
100
AcDbEntity
  8
0
100
AcDbCircle
 10
188.3229197809228
 20
13.73137272248517
 30
0.0
 40
0.333333333333396
100
AcDbArc
 50
240.0183606311473
 51
60.01836063114733
  0
LINE
  5
15E
102
{ACAD_REACTORS
330
163
102
}
330
154
100
AcDbEntity
  8
0
100
AcDbLine
 10
185.9887104250881
 20
14.69320296572853
 30
0.0
 11
188.1563456297596
 21
13.44264419380229
 31
0.0
  0
ARC
  5
15F
102
{ACAD_REACTORS
330
163
102
}
330
154
100
AcDbEntity
  8
0
100
AcDbCircle
 10
186.3218598278342
 20
15.27066193048824
 30
0.0
 40
0.6666688687282916
100
AcDbArc
 50
180.0
 51
240.0183606311454
  0
LINE
  5
160
102
{ACAD_REACTORS
330
163
102
}
330
154
100
AcDbEntity
  8
0
100
AcDbLine
 10
185.6551909591059
 20
19.94397836659928
 30
0.0
 11
185.6551909591059
 21
15.27066193048824
 31
0.0
  0
ARC
  5
161
102
{ACAD_REACTORS
330
163
102
}
330
154
100
AcDbEntity
  8
0
100
AcDbCircle
 10
185.9885242924393
 20
19.94397836659928
 30
0.0
 40
0.333333333333396
100
AcDbArc
 50
0.0
 51
180.0
  0
LINE
  5
162
102
{ACAD_REACTORS
330
163
102
}
330
154
100
AcDbEntity
  8
0
100
AcDbLine
 10
186.3218576257727
 20
15.27066065865696
 30
0.0
 11
186.3218576257727
 21
19.94397836659928
 31
0.0
  0
HATCH
  5
163
330
154
100
AcDbEntity
  8
Schraffur
 62
     7
100
AcDbHatch
 10
0.0
 20
0.0
 30
0.0
210
0.0
220
0.0
230
1.0
  2
SOLID
 70
     1
 71
     1
 91
        1
 92
        1
 93
        7
 72
     1
 10
188.4894939320861
 20
14.02010125116808
 11
186.3218576257727
 21
15.27066065865696
 72
     1
 10
186.3218576257727
 20
15.27066065865696
 11
186.3218576257727
 21
19.94397836659928
 72
     2
 10
185.9885242924393
 20
19.94397836659928
 40
0.333333333333396
 50
0.0
 51
180.0
 73
     1
 72
     1
 10
185.6551909591059
 20
19.94397836659928
 11
185.6551909591059
 21
15.27066193048824
 72
     2
 10
186.3218598278342
 20
15.27066193048824
 40
0.6666688687282916
 50
180.0
 51
240.0183606311454
 73
     1
 72
     1
 10
185.9887104250881
 20
14.69320296572853
 11
188.1563456297596
 21
13.44264419380229
 72
     2
 10
188.3229197809228
 20
13.73137272248517
 40
0.333333333333396
 50
240.0183606311473
 51
420.0183606311473
 73
     1
 97
        7
330
15C
330
162
330
161
330
160
330
15F
330
15E
330
15D
 75
     0
 76
     1
 98
        1
 10
0.0
 20
0.0
  0
LINE
  5
164
102
{ACAD_REACTORS
330
171
102
}
330
154
100
AcDbEntity
  8
0
100
AcDbLine
 10
188.655189950303
 20
18.85482345606895
 30
0.0
 11
187.4829623801859
 21
20.88518116554469
 31
0.0
  0
LINE
  5
165
102
{ACAD_REACTORS
330
171
102
}
330
154
100
AcDbEntity
  8
0
100
AcDbLine
 10
189.82741752042
 20
20.88518116554469
 30
0.0
 11
188.655189950303
 21
18.85482345606895
 31
0.0
  0
ARC
  5
166
102
{ACAD_REACTORS
330
171
102
}
330
154
100
AcDbEntity
  8
0
100
AcDbCircle
 10
190.0568849915682
 20
20.75269805930704
 30
0.0
 40
0.2649662124752865
100
AcDbArc
 50
0.0
 51
149.9999999999939
  0
LINE
  5
167
102
{ACAD_REACTORS
330
171
102
}
330
154
100
AcDbEntity
  8
0
100
AcDbLine
 10
190.3218512040435
 20
14.28806850858179
 30
0.0
 11
190.3218512040435
 21
20.75269805930705
 31
0.0
  0
ARC
  5
168
102
{ACAD_REACTORS
330
171
102
}
330
154
100
AcDbEntity
  8
0
100
AcDbCircle
 10
189.98851787071
 20
14.28806850858179
 30
0.0
 40
0.3333333333334023
100
AcDbArc
 50
180.0
 51
0.0
  0
LINE
  5
169
102
{ACAD_REACTORS
330
171
102
}
330
154
100
AcDbEntity
  8
0
100
AcDbLine
 10
189.6551845373767
 20
19.25353601487275
 30
0.0
 11
189.6551845373766
 21
14.28806850858179
 31
0.0
  0
LINE
  5
16A
102
{ACAD_REACTORS
330
171
102
}
330
154
100
AcDbEntity
  8
0
100
AcDbLine
 10
188.7995275176003
 20
17.77149458276708
 30
0.0
 11
189.6551845373767
 21
19.25353601487275
 31
0.0
  0
ARC
  5
16B
102
{ACAD_REACTORS
330
171
102
}
330
154
100
AcDbEntity
  8
0
100
AcDbCircle
 10
188.655189950303
 20
17.85482791610036
 30
0.0
 40
0.1666666666665381
100
AcDbArc
 50
209.9999999999992
 51
330.0000000000008
  0
LINE
  5
16C
102
{ACAD_REACTORS
330
171
102
}
330
154
100
AcDbEntity
  8
0
100
AcDbLine
 10
187.6551953632293
 20
19.25353601487277
 30
0.0
 11
188.5108523830057
 21
17.77149458276708
 31
0.0
  0
LINE
  5
16D
102
{ACAD_REACTORS
330
171
102
}
330
154
100
AcDbEntity
  8
0
100
AcDbLine
 10
187.6551953632293
 20
15.84737070168959
 30
0.0
 11
187.6551953632293
 21
19.25353601487277
 31
0.0
  0
ARC
  5
16E
102
{ACAD_REACTORS
330
171
102
}
330
154
100
AcDbEntity
  8
0
100
AcDbCircle
 10
187.3218620298959
 20
15.84737070168959
 30
0.0
 40
0.333333333333396
100
AcDbArc
 50
180.0
 51
0.0
  0
LINE
  5
16F
102
{ACAD_REACTORS
330
171
102
}
330
154
100
AcDbEntity
  8
0
100
AcDbLine
 10
186.9885286965624
 20
20.75269805930705
 30
0.0
 11
186.9885286965624
 21
15.84737070168959
 31
0.0
  0
ARC
  5
170
102
{ACAD_REACTORS
330
171
102
}
330
154
100
AcDbEntity
  8
0
100
AcDbCircle
 10
187.2534949090378
 20
20.75269805930705
 30
0.0
 40
0.2649662124752854
100
AcDbArc
 50
29.9999999999981
 51
180.0
  0
HATCH
  5
171
330
154
100
AcDbEntity
  8
Schraffur
 62
     7
100
AcDbHatch
 10
0.0
 20
0.0
 30
0.0
210
0.0
220
0.0
230
1.0
  2
SOLID
 70
     1
 71
     1
 91
        1
 92
        1
 93
       13
 72
     1
 10
188.655189950303
 20
18.85482345606895
 11
187.4829623801859
 21
20.88518116554469
 72
     2
 10
187.2534949090378
 20
20.75269805930705
 40
0.2649662124752854
 50
29.9999999999981
 51
180.0
 73
     1
 72
     1
 10
186.9885286965624
 20
20.75269805930705
 11
186.9885286965624
 21
15.84737070168959
 72
     2
 10
187.3218620298959
 20
15.84737070168959
 40
0.333333333333396
 50
180.0
 51
360.0
 73
     1
 72
     1
 10
187.6551953632293
 20
15.84737070168959
 11
187.6551953632293
 21
19.25353601487277
 72
     1
 10
187.6551953632293
 20
19.25353601487277
 11
188.5108523830057
 21
17.77149458276708
 72
     2
 10
188.655189950303
 20
17.85482791610036
 40
0.1666666666665381
 50
209.9999999999992
 51
330.0000000000008
 73
     1
 72
     1
 10
188.7995275176003
 20
17.77149458276708
 11
189.6551845373767
 21
19.25353601487275
 72
     1
 10
189.6551845373767
 20
19.25353601487275
 11
189.6551845373766
 21
14.28806850858179
 72
     2
 10
189.98851787071
 20
14.28806850858179
 40
0.3333333333334023
 50
180.0
 51
360.0
 73
     1
 72
     1
 10
190.3218512040435
 20
14.28806850858179
 11
190.3218512040435
 21
20.75269805930705
 72
     2
 10
190.0568849915682
 20
20.75269805930704
 40
0.2649662124752865
 50
0.0
 51
149.9999999999939
 73
     1
 72
     1
 10
189.82741752042
 20
20.88518116554469
 11
188.655189950303
 21
18.85482345606894
 97
       13
330
164
330
170
330
16F
330
16E
330
16D
330
16C
330
16B
330
16A
330
169
330
168
330
167
330
166
330
165
 75
     0
 76
     1
 98
        1
 10
0.0
 20
0.0
  0
ARC
  5
172
102
{ACAD_REACTORS
330
180
102
}
330
154
100
AcDbEntity
  8
0
100
AcDbCircle
 10
192.6913083387628
 20
15.84737070168959
 30
10.0
 40
0.3333333333333919
100
AcDbArc
 50
299.9816393688529
 51
119.9816393688526
  0
LINE
  5
173
102
{ACAD_REACTORS
330
180
102
}
330
154
100
AcDbEntity
  8
0
100
AcDbLine
 10
191.6551889415001
 20
15.6344385114688
 30
10.0
 11
192.5247341875995
 21
16.13609923037247
 31
10.0
  0
LINE
  5
174
102
{ACAD_REACTORS
330
180
102
}
330
154
100
AcDbEntity
  8
0
100
AcDbLine
 10
191.6551889415001
 20
17.1673067592928
 30
10.0
 11
191.6551889415001
 21
15.6344385114688
 31
10.0
  0
LINE
  5
175
102
{ACAD_REACTORS
330
180
102
}
330
154
100
AcDbEntity
  8
0
100
AcDbLine
 10
192.6913083387628
 20
17.1673067592928
 30
10.0
 11
191.6551889415001
 21
17.1673067592928
 31
10.0
  0
ARC
  5
176
102
{ACAD_REACTORS
330
180
102
}
330
154
100
AcDbEntity
  8
0
100
AcDbCircle
 10
192.6913083387628
 20
17.5006400926262
 30
10.0
 40
0.333333333333396
100
AcDbArc
 50
270.0
 51
90.0
  0
LINE
  5
177
102
{ACAD_REACTORS
330
180
102
}
330
154
100
AcDbEntity
  8
0
100
AcDbLine
 10
191.6551889415001
 20
17.8339734259596
 30
10.0
 11
192.6913083387628
 21
17.8339734259596
 31
10.0
  0
LINE
  5
178
102
{ACAD_REACTORS
330
180
102
}
330
154
100
AcDbEntity
  8
0
100
AcDbLine
 10
191.6551889415001
 20
19.36684167378358
 30
10.0
 11
191.6551889415001
 21
17.8339734259596
 31
10.0
  0
LINE
  5
179
102
{ACAD_REACTORS
330
180
102
}
330
154
100
AcDbEntity
  8
0
100
AcDbLine
 10
192.5247341875995
 20
18.86518095487989
 30
10.0
 11
191.6551889415001
 21
19.36684167378358
 31
10.0
  0
ARC
  5
17A
102
{ACAD_REACTORS
330
180
102
}
330
154
100
AcDbEntity
  8
0
100
AcDbCircle
 10
192.6913083387628
 20
19.15390948356282
 30
10.0
 40
0.3333333333333963
100
AcDbArc
 50
240.0183606311407
 51
60.01835942372524
  0
LINE
  5
17B
102
{ACAD_REACTORS
330
180
102
}
330
154
100
AcDbEntity
  8
0
100
AcDbLine
 10
191.4884297593299
 20
20.23270689528218
 30
10.0
 11
192.857882489926
 21
19.44263801224573
 31
10.0
  0
ARC
  5
17C
102
{ACAD_REACTORS
330
180
102
}
330
154
100
AcDbEntity
  8
0
100
AcDbCircle
 10
191.3218556081666
 20
19.94397836659928
 30
10.0
 40
0.333333333333396
100
AcDbArc
 50
60.01836063114071
 51
180.0
  0
LINE
  5
17D
102
{ACAD_REACTORS
330
180
102
}
330
154
100
AcDbEntity
  8
0
100
AcDbLine
 10
190.9885222748332
 20
15.05730181865312
 30
10.0
 11
190.9885222748332
 21
19.94397836659928
 31
10.0
  0
ARC
  5
17E
102
{ACAD_REACTORS
330
180
102
}
330
154
100
AcDbEntity
  8
0
100
AcDbCircle
 10
191.3218556081666
 20
15.05730181865312
 30
10.0
 40
0.333333333333396
100
AcDbArc
 50
180.0
 51
299.9816393688593
  0
LINE
  5
17F
102
{ACAD_REACTORS
330
180
102
}
330
154
100
AcDbEntity
  8
0
100
AcDbLine
 10
192.857882489926
 20
15.55864217300668
 30
10.0
 11
191.4884297593299
 21
14.7685732899702
 31
10.0
  0
HATCH
  5
180
330
154
100
AcDbEntity
  8
Schraffur
 62
     7
100
AcDbHatch
 10
0.0
 20
0.0
 30
0.0
210
0.0
220
0.0
230
1.0
  2
SOLID
 70
     1
 71
     1
 91
        1
 92
        1
 93
       14
 72
     2
 10
192.6913083387628
 20
15.84737070168959
 40
0.3333333333333919
 50
299.9816393688529
 51
479.9816393688526
 73
     1
 72
     1
 10
192.5247341875995
 20
16.13609923037247
 11
191.6551889415001
 21
15.63443851146881
 72
     1
 10
191.6551889415001
 20
15.6344385114688
 11
191.6551889415001
 21
17.1673067592928
 72
     1
 10
191.6551889415001
 20
17.1673067592928
 11
192.6913083387628
 21
17.1673067592928
 72
     2
 10
192.6913083387628
 20
17.5006400926262
 40
0.333333333333396
 50
270.0
 51
450.0
 73
     1
 72
     1
 10
192.6913083387628
 20
17.8339734259596
 11
191.6551889415001
 21
17.8339734259596
 72
     1
 10
191.6551889415001
 20
17.8339734259596
 11
191.6551889415001
 21
19.36684167378358
 72
     1
 10
191.6551889415001
 20
19.36684167378358
 11
192.5247341875995
 21
18.86518095487989
 72
     2
 10
192.6913083387628
 20
19.15390948356282
 40
0.3333333333333963
 50
240.0183606311407
 51
420.0183594237252
 73
     1
 72
     1
 10
192.857882489926
 20
19.44263801224573
 11
191.4884297593299
 21
20.23270689528218
 72
     2
 10
191.3218556081666
 20
19.94397836659928
 40
0.333333333333396
 50
60.01836063114071
 51
180.0
 73
     1
 72
     1
 10
190.9885222748332
 20
19.94397836659928
 11
190.9885222748332
 21
15.05730181865312
 72
     2
 10
191.3218556081666
 20
15.05730181865312
 40
0.333333333333396
 50
180.0
 51
299.9816393688593
 73
     1
 72
     1
 10
191.4884297593299
 20
14.7685732899702
 11
192.857882489926
 21
15.55864217300668
 97
       14
330
172
330
173
330
174
330
175
330
176
330
177
330
178
330
179
330
17A
330
17B
330
17C
330
17D
330
17E
330
17F
 75
     0
 76
     1
 98
        1
 10
0.0
 20
0.0
  0
LINE
  5
181
330
154
100
AcDbEntity
  8
Skizziergeometrie(ISO)
100
AcDbLine
 10
19.98018995030303
 20
45.0006400926262
 30
0.0
 11
199.980189950303
 21
45.0006400926262
 31
0.0
  0
LINE
  5
182
330
154
100
AcDbEntity
  8
Skizziergeometrie(ISO)
100
AcDbLine
 10
19.98018995030303
 20
40.0006400926262
 30
0.0
 11
199.980189950303
 21
40.0006400926262
 31
0.0
  0
LINE
  5
183
330
154
100
AcDbEntity
  8
Skizziergeometrie(ISO)
100
AcDbLine
 10
19.98018995030303
 20
35.00064009262621
 30
0.0
 11
199.980189950303
 21
35.00064009262621
 31
0.0
  0
LINE
  5
184
330
154
100
AcDbEntity
  8
Skizziergeometrie(ISO)
100
AcDbLine
 10
19.98018995030303
 20
30.00064009262621
 30
0.0
 11
199.980189950303
 21
30.00064009262621
 31
0.0
  0
LINE
  5
185
330
154
100
AcDbEntity
  8
Skizziergeometrie(ISO)
100
AcDbLine
 10
19.98018995030303
 20
25.00064009262621
 30
0.0
 11
199.980189950303
 21
25.00064009262621
 31
0.0
  0
LINE
  5
186
330
154
100
AcDbEntity
  8
Skizziergeometrie(ISO)
100
AcDbLine
 10
19.98018995030303
 20
17.5006400926262
 30
0.0
 11
49.98018995030306
 21
17.5006400926262
 31
0.0
  0
LINE
  5
187
330
154
100
AcDbEntity
  8
Skizziergeometrie(ISO)
100
AcDbLine
 10
26.98018995030303
 20
45.0006400926262
 30
0.0
 11
26.98018995030303
 21
25.00064009262621
 31
0.0
  0
LINE
  5
188
330
154
100
AcDbEntity
  8
Skizziergeometrie(ISO)
100
AcDbLine
 10
44.98018995030303
 20
45.0006400926262
 30
0.0
 11
44.98018995030303
 21
25.00064009262621
 31
0.0
  0
LINE
  5
189
330
154
100
AcDbEntity
  8
Skizziergeometrie(ISO)
100
AcDbLine
 10
49.98018995030306
 20
10.0006400926262
 30
0.0
 11
49.98018995030306
 21
25.00064009262621
 31
0.0
  0
LINE
  5
18A
330
154
100
AcDbEntity
  8
Skizziergeometrie(ISO)
100
AcDbLine
 10
159.980189950303
 20
25.00064009262621
 30
0.0
 11
159.980189950303
 21
10.0006400926262
 31
0.0
  0
LINE
  5
18B
330
154
100
AcDbEntity
  8
Skizziergeometrie(ISO)
100
AcDbLine
 10
177.3301899503031
 20
25.0006400926262
 30
0.0
 11
177.3301899503031
 21
10.0006400926262
 31
0.0
  0
LINE
  5
18C
330
154
100
AcDbEntity
  8
Skizziergeometrie(ISO)
100
AcDbLine
 10
190.9885222748332
 20
15.05730181865312
 30
0.0
 11
190.9885222748332
 21
19.94397836659928
 31
0.0
  0
LINE
  5
18D
330
154
100
AcDbEntity
  8
Skizziergeometrie(ISO)
100
AcDbLine
 10
192.857882489926
 20
15.55864217300668
 30
0.0
 11
191.4884297593299
 21
14.7685732899702
 31
0.0
  0
LINE
  5
18E
330
154
100
AcDbEntity
  8
Skizziergeometrie(ISO)
100
AcDbLine
 10
191.6551889415001
 20
15.6344385114688
 30
0.0
 11
192.5247341875995
 21
16.13609923037247
 31
0.0
  0
LINE
  5
18F
330
154
100
AcDbEntity
  8
Skizziergeometrie(ISO)
100
AcDbLine
 10
191.6551889415001
 20
17.1673067592928
 30
0.0
 11
191.6551889415001
 21
15.6344385114688
 31
0.0
  0
LINE
  5
190
330
154
100
AcDbEntity
  8
Skizziergeometrie(ISO)
100
AcDbLine
 10
192.6913083387628
 20
17.1673067592928
 30
0.0
 11
191.6551889415001
 21
17.1673067592928
 31
0.0
  0
LINE
  5
191
330
154
100
AcDbEntity
  8
Skizziergeometrie(ISO)
100
AcDbLine
 10
191.6551889415001
 20
17.8339734259596
 30
0.0
 11
192.6913083387628
 21
17.8339734259596
 31
0.0
  0
LINE
  5
192
330
154
100
AcDbEntity
  8
Skizziergeometrie(ISO)
100
AcDbLine
 10
191.6551889415001
 20
19.36684167378358
 30
0.0
 11
191.6551889415001
 21
17.8339734259596
 31
0.0
  0
LINE
  5
193
330
154
100
AcDbEntity
  8
Skizziergeometrie(ISO)
100
AcDbLine
 10
192.5247341875995
 20
18.86518095487989
 30
0.0
 11
191.6551889415001
 21
19.36684167378358
 31
0.0
  0
LINE
  5
194
330
154
100
AcDbEntity
  8
Skizziergeometrie(ISO)
100
AcDbLine
 10
191.4884297593299
 20
20.23270689528218
 30
0.0
 11
192.857882489926
 21
19.44263801224573
 31
0.0
  0
LINE
  5
195
330
154
100
AcDbEntity
  8
Skizziergeometrie(ISO)
100
AcDbLine
 10
184.3218566169696
 20
15.84737070168959
 30
0.0
 11
184.3218566169696
 21
19.15390948356282
 31
0.0
  0
LINE
  5
196
330
154
100
AcDbEntity
  8
Skizziergeometrie(ISO)
100
AcDbLine
 10
184.9885232836365
 20
19.15390948356282
 30
0.0
 11
184.9885232836365
 21
15.84737070168959
 31
0.0
  0
LINE
  5
197
330
154
100
AcDbEntity
  8
Skizziergeometrie(ISO)
100
AcDbLine
 10
188.1563456297596
 20
13.44264419380229
 30
0.0
 11
185.9887104250881
 21
14.69320296572853
 31
0.0
  0
LINE
  5
198
330
154
100
AcDbEntity
  8
Skizziergeometrie(ISO)
100
AcDbLine
 10
186.3218576257727
 20
15.27066065865696
 30
0.0
 11
188.4894939320861
 21
14.02010125116808
 31
0.0
  0
LINE
  5
199
330
154
100
AcDbEntity
  8
Skizziergeometrie(ISO)
100
AcDbLine
 10
186.3218576257727
 20
19.94397836659928
 30
0.0
 11
186.3218576257727
 21
15.27066065865696
 31
0.0
  0
LINE
  5
19A
330
154
100
AcDbEntity
  8
Skizziergeometrie(ISO)
100
AcDbLine
 10
185.6551909591059
 20
15.27066193048824
 30
0.0
 11
185.6551909591059
 21
19.94397836659928
 31
0.0
  0
LINE
  5
19B
330
154
100
AcDbEntity
  8
Skizziergeometrie(ISO)
100
AcDbLine
 10
189.82741752042
 20
20.88518116554469
 30
0.0
 11
188.655189950303
 21
18.85482345606895
 31
0.0
  0
LINE
  5
19C
330
154
100
AcDbEntity
  8
Skizziergeometrie(ISO)
100
AcDbLine
 10
190.3218512040435
 20
14.28806850858179
 30
0.0
 11
190.3218512040435
 21
20.75269805930705
 31
0.0
  0
LINE
  5
19D
330
154
100
AcDbEntity
  8
Skizziergeometrie(ISO)
100
AcDbLine
 10
187.4829623801859
 20
20.88518116554469
 30
0.0
 11
188.655189950303
 21
18.85482345606895
 31
0.0
  0
LINE
  5
19E
330
154
100
AcDbEntity
  8
Skizziergeometrie(ISO)
100
AcDbLine
 10
186.9885286965624
 20
15.84737070168959
 30
0.0
 11
186.9885286965624
 21
20.75269805930705
 31
0.0
  0
LINE
  5
19F
330
154
100
AcDbEntity
  8
Skizziergeometrie(ISO)
100
AcDbLine
 10
188.655189950303
 20
12.50064009262539
 30
0.0
 11
180.2387546751623
 21
17.35627582828491
 31
0.0
  0
LINE
  5
1A0
330
154
100
AcDbEntity
  8
Skizziergeometrie(ISO)
100
AcDbLine
 10
197.0716252254436
 20
17.35627582828489
 30
0.0
 11
188.655189950303
 21
12.50064009262539
 31
0.0
  0
LINE
  5
1A1
330
154
100
AcDbEntity
  8
Skizziergeometrie(ISO)
100
AcDbLine
 10
188.655189950303
 20
22.50064009262702
 30
0.0
 11
197.0716252254436
 21
17.6450043569675
 31
0.0
  0
LINE
  5
1A2
330
154
100
AcDbEntity
  8
Skizziergeometrie(ISO)
100
AcDbLine
 10
180.2387546751623
 20
17.6450043569675
 30
0.0
 11
188.655189950303
 21
22.50064009262702
 31
0.0
  0
LINE
  5
1A3
330
154
100
AcDbEntity
  8
Skizziergeometrie(ISO)
100
AcDbLine
 10
187.6551953632293
 20
19.25353601487277
 30
0.0
 11
187.6551953632293
 21
15.84737070168959
 31
0.0
  0
LINE
  5
1A4
330
154
100
AcDbEntity
  8
Skizziergeometrie(ISO)
100
AcDbLine
 10
188.5108523830057
 20
17.77149458276708
 30
0.0
 11
187.6551953632293
 21
19.25353601487277
 31
0.0
  0
LINE
  5
1A5
330
154
100
AcDbEntity
  8
Skizziergeometrie(ISO)
100
AcDbLine
 10
189.6551845373767
 20
19.25353601487275
 30
0.0
 11
188.7995275176003
 21
17.77149458276708
 31
0.0
  0
LINE
  5
1A6
330
154
100
AcDbEntity
  8
Skizziergeometrie(ISO)
100
AcDbLine
 10
189.6551845373766
 20
14.28806850858179
 30
0.0
 11
189.6551845373767
 21
19.25353601487275
 31
0.0
  0
ARC
  5
1A7
330
154
100
AcDbEntity
  8
Skizziergeometrie(ISO)
100
AcDbCircle
 10
192.6913083387628
 20
15.84737070168959
 30
0.0
 40
0.3333333333333919
100
AcDbArc
 50
299.9816393688527
 51
119.98163936886
  0
ARC
  5
1A8
330
154
100
AcDbEntity
  8
Skizziergeometrie(ISO)
100
AcDbCircle
 10
192.6913083387628
 20
17.5006400926262
 30
0.0
 40
0.333333333333396
100
AcDbArc
 50
270.0
 51
90.0
  0
ARC
  5
1A9
330
154
100
AcDbEntity
  8
Skizziergeometrie(ISO)
100
AcDbCircle
 10
192.6913083387628
 20
19.15390948356282
 30
0.0
 40
0.3333333333333963
100
AcDbArc
 50
240.0183606311413
 51
60.01836063114108
  0
ARC
  5
1AA
330
154
100
AcDbEntity
  8
Skizziergeometrie(ISO)
100
AcDbCircle
 10
184.655189950303
 20
15.84737070168959
 30
0.0
 40
0.3333333333333997
100
AcDbArc
 50
180.0
 51
0.0
  0
ARC
  5
1AB
330
154
100
AcDbEntity
  8
Skizziergeometrie(ISO)
100
AcDbCircle
 10
184.655189950303
 20
19.15390948356282
 30
0.0
 40
0.3333333333333996
100
AcDbArc
 50
0.0
 51
180.0
  0
ARC
  5
1AC
330
154
100
AcDbEntity
  8
Skizziergeometrie(ISO)
100
AcDbCircle
 10
188.3229197809228
 20
13.73137272248517
 30
0.0
 40
0.333333333333396
100
AcDbArc
 50
240.0183606311468
 51
60.01836063114108
  0
ARC
  5
1AD
330
154
100
AcDbEntity
  8
Skizziergeometrie(ISO)
100
AcDbCircle
 10
185.9885242924393
 20
19.94397836659928
 30
0.0
 40
0.333333333333396
100
AcDbArc
 50
0.0
 51
180.0
  0
ARC
  5
1AE
330
154
100
AcDbEntity
  8
Skizziergeometrie(ISO)
100
AcDbCircle
 10
190.0568849915682
 20
20.75269805930704
 30
0.0
 40
0.2649662124752865
100
AcDbArc
 50
0.0
 51
149.9999999999956
  0
ARC
  5
1AF
330
154
100
AcDbEntity
  8
Skizziergeometrie(ISO)
100
AcDbCircle
 10
189.98851787071
 20
14.28806850858179
 30
0.0
 40
0.3333333333334023
100
AcDbArc
 50
180.0
 51
0.0
  0
ARC
  5
1B0
330
154
100
AcDbEntity
  8
Skizziergeometrie(ISO)
100
AcDbCircle
 10
187.3218620298959
 20
15.84737070168959
 30
0.0
 40
0.333333333333396
100
AcDbArc
 50
180.0
 51
0.0
  0
ARC
  5
1B1
330
154
100
AcDbEntity
  8
Skizziergeometrie(ISO)
100
AcDbCircle
 10
187.2534949090378
 20
20.75269805930705
 30
0.0
 40
0.2649662124752854
100
AcDbArc
 50
29.99999999999976
 51
180.0
  0
ARC
  5
1B2
330
154
100
AcDbEntity
  8
Skizziergeometrie(ISO)
100
AcDbCircle
 10
191.3218556081666
 20
15.05730181865312
 30
0.0
 40
0.333333333333396
100
AcDbArc
 50
180.0
 51
299.9816393688587
  0
ARC
  5
1B3
330
154
100
AcDbEntity
  8
Skizziergeometrie(ISO)
100
AcDbCircle
 10
191.3218556081666
 20
19.94397836659928
 30
0.0
 40
0.333333333333396
100
AcDbArc
 50
60.01836063114071
 51
180.0
  0
ARC
  5
1B4
330
154
100
AcDbEntity
  8
Skizziergeometrie(ISO)
100
AcDbCircle
 10
196.9883381498621
 20
17.5006400926262
 30
0.0
 40
0.1666666666665381
100
AcDbArc
 50
299.9816393688627
 51
60.01836063115012
  0
ARC
  5
1B5
330
154
100
AcDbEntity
  8
Skizziergeometrie(ISO)
100
AcDbCircle
 10
180.3220417507439
 20
17.5006400926262
 30
0.0
 40
0.1666666666665381
100
AcDbArc
 50
119.9816393688498
 51
240.0183606311497
  0
ARC
  5
1B6
330
154
100
AcDbEntity
  8
Skizziergeometrie(ISO)
100
AcDbCircle
 10
186.3218598278342
 20
15.27066193048824
 30
0.0
 40
0.6666688687282916
100
AcDbArc
 50
180.0
 51
240.0183606311453
  0
ARC
  5
1B7
330
154
100
AcDbEntity
  8
Skizziergeometrie(ISO)
100
AcDbCircle
 10
188.655189950303
 20
17.85482791610036
 30
0.0
 40
0.1666666666665381
100
AcDbArc
 50
209.9999999999999
 51
330.0000000000001
  0
LINE
  5
1B8
330
154
100
AcDbEntity
  8
Skizzierlinie(TC_020513_DIN)
100
AcDbLine
 10
20.98018995030303
 20
25.00064009262621
 30
0.0
 11
20.98018995030303
 21
17.5006400926262
 31
0.0
  0
LINE
  5
1B9
330
154
100
AcDbEntity
  8
Skizzierlinie(TC_020513_DIN)
100
AcDbLine
 10
20.98018995030303
 20
17.5006400926262
 30
0.0
 11
20.980189950303
 21
10.0006400926262
 31
0.0
  0
LINE
  5
1BA
330
154
100
AcDbEntity
  8
Skizzierlinie(TC_020513_DIN)
100
AcDbLine
 10
49.98018995030306
 20
25.00064009262621
 30
0.0
 11
29.98018995030301
 21
17.5006400926262
 31
0.0
  0
LINE
  5
1BB
330
154
100
AcDbEntity
  8
Skizzierlinie(TC_020513_DIN)
100
AcDbLine
 10
177.3301899503031
 20
25.0006400926262
 30
0.0
 11
159.980189950303
 21
20.0006400926262
 31
0.0
  0
LINE
  5
1BC
330
154
100
AcDbEntity
  8
Skizzierlinie(TC_020513_DIN)
100
AcDbLine
 10
159.980189950303
 20
20.0006400926262
 30
0.0
 11
177.3301899503031
 21
10.0006400926262
 31
0.0
  0
LINE
  5
1BD
330
154
100
AcDbEntity
  8
Skizziergeometrie(ISO)
100
AcDbLine
 10
19.98018995030303
 20
45.0006400926262
 30
0.0
 11
19.98018995030303
 21
10.0006400926262
 31
0.0
  0
LINE
  5
1BE
330
154
100
AcDbEntity
  8
Skizzierlinie(TC_020513_DIN)
100
AcDbLine
 10
50.98018995030301
 20
25.00064009262621
 30
0.0
 11
50.98018995030301
 21
17.5006400926262
 31
0.0
  0
LINE
  5
1BF
330
154
100
AcDbEntity
  8
Skizzierlinie(TC_020513_DIN)
100
AcDbLine
 10
50.98018995030301
 20
17.5006400926262
 30
0.0
 11
50.98018995030301
 21
10.0006400926262
 31
0.0
  0
MTEXT
  5
1C0
330
154
100
AcDbEntity
  8
Symbole(ISO)
 62
     7
100
AcDbMText
 10
20.98018995030303
 20
21.2506400926262
 30
0.0
 40
2.5
 41
8.997516465920178
 71
     4
 72
     1
  1
 Date
  7
TC 2_5 mm
 73
     1
 44
1.0
1001
ACAD
1000
MTEXTBEGIN
1070
    73
1070
     1
1070
    44
1040
1.0
1070
    74
1070
     0
1000
MTEXTEND
  0
MTEXT
  5
1C1
330
154
100
AcDbEntity
  8
Symbole(ISO)
 62
     7
100
AcDbMText
 10
20.980189950303
 20
13.7506400926262
 30
0.0
 40
2.5
 41
8.970966064125889
 71
     4
 72
     1
  1
 Sign.
  7
TC 2_5 mm
 73
     1
 44
1.0
1001
ACAD
1000
MTEXTBEGIN
1070
    73
1070
     1
1070
    44
1040
1.0
1070
    74
1070
     0
1000
MTEXTEND
  0
MTEXT
  5
1C2
330
154
100
AcDbEntity
  8
Symbole(ISO)
 62
     7
100
AcDbMText
 10
168.655189950303
 20
22.5006400926262
 30
0.0
 40
2.5
 41
17.34061856478945
 71
     5
 72
     1
  1
Scale
  7
TC 2_5 mm
 73
     1
 44
1.0
1001
ACAD
1000
MTEXTBEGIN
1070
    73
1070
     1
1070
    44
1040
1.0
1070
    74
1070
     0
1000
MTEXTEND
  0
MTEXT
  5
1C3
330
154
100
AcDbEntity
  8
Symbole(ISO)
 62
     7
100
AcDbMText
 10
39.98018995030301
 20
21.2506400926262
 30
0.0
 40
3.499999940395355
 41
20.95325017112982
 71
     5
 72
     1
  1
04.01.2007
  7
TC 3_5 mm
 73
     1
 44
1.0
1001
ACAD
1000
MTEXTBEGIN
1070
    73
1070
     1
1070
    44
1040
1.0
1070
    74
1070
     0
1000
MTEXTEND
  0
ATTDEF
  5
1C4
330
154
100
AcDbEntity
  8
Symbole(ISO)
 62
     7
100
AcDbText
 10
50.98018995030301
 20
11.75064006282388
 30
0.0
 40
4.000000059604644
  1
surface mounting h. 2 lev. PG21
  7
Kopie von TC 5 mm
 11
50.98018995030301
 21
13.7506400926262
 31
0.0
100
AcDbAttributeDefinition
  3
BEZEICHNUNG
  2
BEZEICHNUNG
 70
     0
 74
     2
  0
ATTDEF
  5
1C5
330
154
100
AcDbEntity
  8
Symbole(ISO)
 62
     7
100
AcDbText
 10
164.2856470919772
 20
12.5006400926262
 30
0.0
 40
5.0
  1
1:2
 41
0.899999976158142
  7
TC 5 mm
 72
     1
 11
168.655189950303
 21
15.0006400926262
 31
0.0
100
AcDbAttributeDefinition
  3
FirstViewScale
  2
FirstViewScale
 70
     0
 74
     2
  0
ATTDEF
  5
1C6
330
154
100
AcDbEntity
  8
Symbole(ISO)
 62
     7
100
AcDbText
 10
50.98018995030301
 20
19.25064006282388
 30
0.0
 40
4.000000059604644
  1
CHP 16
 41
1.199999928474426
  7
Kopie von TC 5 mm
 11
50.98018995030301
 21
21.2506400926262
 31
0.0
100
AcDbAttributeDefinition
  3
BAUTEILNUMMER
  2
BAUTEILNUMMER
 70
     0
 74
     2
  0
ENDBLK
  5
156
330
154
100
AcDbEntity
  8
0
100
AcDbBlockEnd
  0
BLOCK
  5
3C2
330
3B7
100
AcDbEntity
  8
0
100
AcDbBlockBegin
  2
*D11
 70
     1
 10
0.0
 20
0.0
 30
0.0
  3
*D11
  1

  0
LINE
  5
472
330
3B7
100
AcDbEntity
  8
Bemaßungen(TC_020513_DIN)
  6
Continuous
 62
     7
370
    25
100
AcDbLine
 10
439.7849923098561
 20
262.6061261279303
 30
0.0
 11
439.7849923098561
 21
312.2561261279304
 31
0.0
  0
LINE
  5
473
330
3B7
100
AcDbEntity
  8
Bemaßungen(TC_020513_DIN)
  6
Continuous
 62
     7
370
    25
100
AcDbLine
 10
497.784992309856
 20
262.6061261279303
 30
0.0
 11
497.784992309856
 21
312.2561261279304
 31
0.0
  0
LINE
  5
474
330
3B7
100
AcDbEntity
  8
Bemaßungen(TC_020513_DIN)
  6
Continuous
 62
     7
370
    25
100
AcDbLine
 10
444.784992309856
 20
308.2561261279304
 30
0.0
 11
492.784992309856
 21
308.2561261279304
 31
0.0
  0
SOLID
  5
475
330
3B7
100
AcDbEntity
  8
Bemaßungen(TC_020513_DIN)
  6
Continuous
 62
     7
100
AcDbTrace
 10
444.784992309856
 20
309.0894594612637
 30
0.0
 11
444.784992309856
 21
307.4227927945971
 31
0.0
 12
439.7849923098561
 22
308.2561261279304
 32
0.0
 13
439.7849923098561
 23
308.2561261279304
 33
0.0
  0
SOLID
  5
476
330
3B7
100
AcDbEntity
  8
Bemaßungen(TC_020513_DIN)
  6
Continuous
 62
     7
100
AcDbTrace
 10
492.784992309856
 20
309.0894594612637
 30
0.0
 11
492.784992309856
 21
307.4227927945971
 31
0.0
 12
497.784992309856
 22
308.2561261279304
 32
0.0
 13
497.784992309856
 23
308.2561261279304
 33
0.0
  0
MTEXT
  5
477
330
3B7
100
AcDbEntity
  8
Bemaßungen(TC_020513_DIN)
  6
Continuous
 62
     7
370
    25
100
AcDbMText
 10
463.7641873985327
 20
317.0041479560341
 30
0.0
 40
7.0
 41
0.0
 71
     1
 72
     1
  1
\A1;58
  7
Aktuell-BSI
 73
     1
 44
1.0
1001
ACAD
1000
MTEXTBEGIN
1070
    73
1070
     1
1070
    44
1040
1.0
1070
    74
1070
     0
1000
MTEXTEND
  0
POINT
  5
478
330
3B7
100
AcDbEntity
  8
Defpoints
  6
Continuous
 62
     0
100
AcDbPoint
 10
439.7849923098561
 20
260.6061261279303
 30
0.0
  0
POINT
  5
479
330
3B7
100
AcDbEntity
  8
Defpoints
  6
Continuous
 62
     0
100
AcDbPoint
 10
497.784992309856
 20
260.6061261279303
 30
0.0
  0
POINT
  5
47A
330
3B7
100
AcDbEntity
  8
Defpoints
  6
Continuous
 62
     0
100
AcDbPoint
 10
497.784992309856
 20
308.2561261279304
 30
0.0
  0
ENDBLK
  5
3C3
330
3B7
100
AcDbEntity
  8
0
100
AcDbBlockEnd
  0
BLOCK
  5
487
330
47C
100
AcDbEntity
  8
0
100
AcDbBlockBegin
  2
*D12
 70
     1
 10
0.0
 20
0.0
 30
0.0
  3
*D12
  1

  0
LINE
  5
537
330
47C
100
AcDbEntity
  8
Bemaßungen(TC_020513_DIN)
  6
Continuous
 62
     7
370
    25
100
AcDbLine
 10
377.2074916136691
 20
262.6061261279303
 30
0.0
 11
377.2074916136691
 21
312.2561261279304
 31
0.0
  0
LINE
  5
538
330
47C
100
AcDbEntity
  8
Bemaßungen(TC_020513_DIN)
  6
Continuous
 62
     7
370
    25
100
AcDbLine
 10
224.2029831381549
 20
262.6061261279303
 30
0.0
 11
224.2029831381549
 21
312.2561261279304
 31
0.0
  0
LINE
  5
539
330
47C
100
AcDbEntity
  8
Bemaßungen(TC_020513_DIN)
  6
Continuous
 62
     7
370
    25
100
AcDbLine
 10
372.2074916136691
 20
308.2561261279304
 30
0.0
 11
229.2029831381549
 21
308.2561261279304
 31
0.0
  0
SOLID
  5
53A
330
47C
100
AcDbEntity
  8
Bemaßungen(TC_020513_DIN)
  6
Continuous
 62
     7
100
AcDbTrace
 10
372.2074916136691
 20
309.0894594612637
 30
0.0
 11
372.2074916136691
 21
307.4227927945971
 31
0.0
 12
377.2074916136691
 22
308.2561261279304
 32
0.0
 13
377.2074916136691
 23
308.2561261279304
 33
0.0
  0
SOLID
  5
53B
330
47C
100
AcDbEntity
  8
Bemaßungen(TC_020513_DIN)
  6
Continuous
 62
     7
100
AcDbTrace
 10
229.2029831381549
 20
309.0894594612637
 30
0.0
 11
229.2029831381549
 21
307.4227927945971
 31
0.0
 12
224.2029831381549
 22
308.2561261279304
 32
0.0
 13
224.2029831381549
 23
308.2561261279304
 33
0.0
  0
MTEXT
  5
53C
330
47C
100
AcDbEntity
  8
Bemaßungen(TC_020513_DIN)
  6
Continuous
 62
     7
370
    25
100
AcDbMText
 10
293.3017585218875
 20
317.0089228537148
 30
0.0
 40
7.0
 41
0.0
 71
     1
 72
     1
  1
\A1;153
  7
Aktuell-BSI
 73
     1
 44
1.0
1001
ACAD
1000
MTEXTBEGIN
1070
    73
1070
     1
1070
    44
1040
1.0
1070
    74
1070
     0
1000
MTEXTEND
  0
POINT
  5
53D
330
47C
100
AcDbEntity
  8
Defpoints
  6
Continuous
 62
     0
100
AcDbPoint
 10
377.2074916136691
 20
260.6061261279303
 30
0.0
  0
POINT
  5
53E
330
47C
100
AcDbEntity
  8
Defpoints
  6
Continuous
 62
     0
100
AcDbPoint
 10
224.2029831381549
 20
260.6061261279303
 30
0.0
  0
POINT
  5
53F
330
47C
100
AcDbEntity
  8
Defpoints
  6
Continuous
 62
     0
100
AcDbPoint
 10
224.2029831381549
 20
308.2561261279304
 30
0.0
  0
ENDBLK
  5
488
330
47C
100
AcDbEntity
  8
0
100
AcDbBlockEnd
  0
BLOCK
  5
54C
330
541
100
AcDbEntity
  8
0
100
AcDbBlockBegin
  2
*D13
 70
     1
 10
0.0
 20
0.0
 30
0.0
  3
*D13
  1

  0
LINE
  5
5FC
330
541
100
AcDbEntity
  8
Bemaßungen(TC_020513_DIN)
  6
Continuous
 62
     7
370
    25
100
AcDbLine
 10
446.2849923098477
 20
200.1061261279303
 30
0.0
 11
446.2849923098477
 21
178.1061261279303
 31
0.0
  0
LINE
  5
5FD
330
541
100
AcDbEntity
  8
Bemaßungen(TC_020513_DIN)
  6
Continuous
 62
     7
370
    25
100
AcDbLine
 10
491.2849923098477
 20
200.1061261279303
 30
0.0
 11
491.2849923098477
 21
178.1061261279303
 31
0.0
  0
LINE
  5
5FE
330
541
100
AcDbEntity
  8
Bemaßungen(TC_020513_DIN)
  6
Continuous
 62
     7
370
    25
100
AcDbLine
 10
451.2849923098477
 20
182.1061261279303
 30
0.0
 11
486.2849923098477
 21
182.1061261279303
 31
0.0
  0
SOLID
  5
5FF
330
541
100
AcDbEntity
  8
Bemaßungen(TC_020513_DIN)
  6
Continuous
 62
     7
100
AcDbTrace
 10
451.2849923098477
 20
182.9394594612637
 30
0.0
 11
451.2849923098477
 21
181.272792794597
 31
0.0
 12
446.2849923098477
 22
182.1061261279303
 32
0.0
 13
446.2849923098477
 23
182.1061261279303
 33
0.0
  0
SOLID
  5
600
330
541
100
AcDbEntity
  8
Bemaßungen(TC_020513_DIN)
  6
Continuous
 62
     7
100
AcDbTrace
 10
486.2849923098477
 20
182.9394594612637
 30
0.0
 11
486.2849923098477
 21
181.272792794597
 31
0.0
 12
491.2849923098477
 22
182.1061261279303
 32
0.0
 13
491.2849923098477
 23
182.1061261279303
 33
0.0
  0
MTEXT
  5
601
330
541
100
AcDbEntity
  8
Bemaßungen(TC_020513_DIN)
  6
Continuous
 62
     7
370
    25
100
AcDbMText
 10
463.6042283262187
 20
190.8254985699494
 30
0.0
 40
7.0
 41
0.0
 71
     1
 72
     1
  1
\A1;45
  7
Aktuell-BSI
 73
     1
 44
1.0
1001
ACAD
1000
MTEXTBEGIN
1070
    73
1070
     1
1070
    44
1040
1.0
1070
    74
1070
     0
1000
MTEXTEND
  0
POINT
  5
602
330
541
100
AcDbEntity
  8
Defpoints
  6
Continuous
 62
     0
100
AcDbPoint
 10
446.2849923098477
 20
202.1061261279303
 30
0.0
  0
POINT
  5
603
330
541
100
AcDbEntity
  8
Defpoints
  6
Continuous
 62
     0
100
AcDbPoint
 10
491.2849923098477
 20
202.1061261279303
 30
0.0
  0
POINT
  5
604
330
541
100
AcDbEntity
  8
Defpoints
  6
Continuous
 62
     0
100
AcDbPoint
 10
491.2849923098477
 20
182.1061261279303
 30
0.0
  0
ENDBLK
  5
54D
330
541
100
AcDbEntity
  8
0
100
AcDbBlockEnd
  0
BLOCK
  5
611
330
606
100
AcDbEntity
  8
0
100
AcDbBlockBegin
  2
*D14
 70
     1
 10
0.0
 20
0.0
 30
0.0
  3
*D14
  1

  0
LINE
  5
6C1
330
606
100
AcDbEntity
  8
Bemaßungen(TC_020513_DIN)
  6
Continuous
 62
     7
370
    25
100
AcDbLine
 10
440.2849923098462
 20
205.1061261279303
 30
0.0
 11
440.2849923098462
 21
161.1061261279303
 31
0.0
  0
LINE
  5
6C2
330
606
100
AcDbEntity
  8
Bemaßungen(TC_020513_DIN)
  6
Continuous
 62
     7
370
    25
100
AcDbLine
 10
497.2849923098462
 20
207.1061261279303
 30
0.0
 11
497.2849923098462
 21
161.1061261279303
 31
0.0
  0
LINE
  5
6C3
330
606
100
AcDbEntity
  8
Bemaßungen(TC_020513_DIN)
  6
Continuous
 62
     7
370
    25
100
AcDbLine
 10
445.2849923098462
 20
165.1061261279303
 30
0.0
 11
492.2849923098462
 21
165.1061261279303
 31
0.0
  0
SOLID
  5
6C4
330
606
100
AcDbEntity
  8
Bemaßungen(TC_020513_DIN)
  6
Continuous
 62
     7
100
AcDbTrace
 10
445.2849923098462
 20
165.9394594612637
 30
0.0
 11
445.2849923098462
 21
164.272792794597
 31
0.0
 12
440.2849923098462
 22
165.1061261279303
 32
0.0
 13
440.2849923098462
 23
165.1061261279303
 33
0.0
  0
SOLID
  5
6C5
330
606
100
AcDbEntity
  8
Bemaßungen(TC_020513_DIN)
  6
Continuous
 62
     7
100
AcDbTrace
 10
492.2849923098462
 20
165.9394594612637
 30
0.0
 11
492.2849923098462
 21
164.272792794597
 31
0.0
 12
497.2849923098462
 22
165.1061261279303
 32
0.0
 13
497.2849923098462
 23
165.1061261279303
 33
0.0
  0
MTEXT
  5
6C6
330
606
100
AcDbEntity
  8
Bemaßungen(TC_020513_DIN)
  6
Continuous
 62
     7
370
    25
100
AcDbMText
 10
463.771349745044
 20
173.8254985699494
 30
0.0
 40
7.0
 41
0.0
 71
     1
 72
     1
  1
\A1;57
  7
Aktuell-BSI
 73
     1
 44
1.0
1001
ACAD
1000
MTEXTBEGIN
1070
    73
1070
     1
1070
    44
1040
1.0
1070
    74
1070
     0
1000
MTEXTEND
  0
POINT
  5
6C7
330
606
100
AcDbEntity
  8
Defpoints
  6
Continuous
 62
     0
100
AcDbPoint
 10
440.2849923098462
 20
207.1061261279303
 30
0.0
  0
POINT
  5
6C8
330
606
100
AcDbEntity
  8
Defpoints
  6
Continuous
 62
     0
100
AcDbPoint
 10
497.2849923098462
 20
209.1061261279303
 30
0.0
  0
POINT
  5
6C9
330
606
100
AcDbEntity
  8
Defpoints
  6
Continuous
 62
     0
100
AcDbPoint
 10
497.2849923098462
 20
165.1061261279303
 30
0.0
  0
ENDBLK
  5
612
330
606
100
AcDbEntity
  8
0
100
AcDbBlockEnd
  0
BLOCK
  5
6D6
330
6CB
100
AcDbEntity
  8
0
100
AcDbBlockBegin
  2
*D15
 70
     1
 10
0.0
 20
0.0
 30
0.0
  3
*D15
  1

  0
LINE
  5
79E
330
6CB
100
AcDbEntity
  8
Bemaßungen(TC_020513_DIN)
  6
Continuous
 62
     7
370
    25
100
AcDbLine
 10
498.2849923098459
 20
207.1061261279303
 30
0.0
 11
513.9142881184589
 21
207.1061261279303
 31
0.0
  0
LINE
  5
79F
330
6CB
100
AcDbEntity
  8
Bemaßungen(TC_020513_DIN)
  6
Continuous
 62
     7
370
    25
100
AcDbLine
 10
498.2849923098459
 20
211.1061261279303
 30
0.0
 11
513.9142881184589
 21
211.1061261279303
 31
0.0
  0
LINE
  5
7A0
330
6CB
100
AcDbEntity
  8
Bemaßungen(TC_020513_DIN)
  6
Continuous
 62
     7
370
    25
100
AcDbLine
 10
509.914288118459
 20
216.1061261279304
 30
0.0
 11
509.914288118459
 21
221.1061261279303
 31
0.0
  0
LINE
  5
7A1
330
6CB
100
AcDbEntity
  8
Bemaßungen(TC_020513_DIN)
  6
Continuous
 62
     7
370
    25
100
AcDbLine
 10
509.914288118459
 20
202.1061261279303
 30
0.0
 11
509.914288118459
 21
189.0643798796356
 31
0.0
  0
LINE
  5
7A2
330
6CB
100
AcDbEntity
  8
Bemaßungen(TC_020513_DIN)
  6
Continuous
 62
     7
370
    25
100
AcDbLine
 10
509.914288118459
 20
211.1061261279303
 30
0.0
 11
509.914288118459
 21
207.1061261279303
 31
0.0
  0
SOLID
  5
7A3
330
6CB
100
AcDbEntity
  8
Bemaßungen(TC_020513_DIN)
  6
Continuous
 62
     7
100
AcDbTrace
 10
509.0809547851257
 20
216.1061261279304
 30
0.0
 11
510.7476214517923
 21
216.1061261279304
 31
0.0
 12
509.914288118459
 22
211.1061261279303
 32
0.0
 13
509.914288118459
 23
211.1061261279303
 33
0.0
  0
SOLID
  5
7A4
330
6CB
100
AcDbEntity
  8
Bemaßungen(TC_020513_DIN)
  6
Continuous
 62
     7
100
AcDbTrace
 10
509.0809547851257
 20
202.1061261279303
 30
0.0
 11
510.7476214517923
 21
202.1061261279303
 31
0.0
 12
509.914288118459
 22
207.1061261279303
 32
0.0
 13
509.914288118459
 23
207.1061261279303
 33
0.0
  0
MTEXT
  5
7A5
330
6CB
100
AcDbEntity
  8
Bemaßungen(TC_020513_DIN)
  6
Continuous
 62
     7
370
    25
100
AcDbMText
 10
501.314288118459
 20
190.6643798796357
 30
0.0
 40
7.0
 41
0.0
 71
     1
 72
     1
  1
\A1;4
  7
Aktuell-BSI
 11
0.0000000000000001
 21
1.0
 31
0.0
 73
     1
 44
1.0
1001
ACAD
1000
MTEXTBEGIN
1070
    73
1070
     1
1070
    44
1040
1.0
1070
    74
1070
     0
1000
MTEXTEND
  0
POINT
  5
7A6
330
6CB
100
AcDbEntity
  8
Defpoints
  6
Continuous
 62
     0
100
AcDbPoint
 10
496.2849923098459
 20
207.1061261279303
 30
0.0
  0
POINT
  5
7A7
330
6CB
100
AcDbEntity
  8
Defpoints
  6
Continuous
 62
     0
100
AcDbPoint
 10
496.2849923098459
 20
211.1061261279303
 30
0.0
  0
POINT
  5
7A8
330
6CB
100
AcDbEntity
  8
Defpoints
  6
Continuous
 62
     0
100
AcDbPoint
 10
509.914288118459
 20
211.1061261279303
 30
0.0
  0
ENDBLK
  5
6D7
330
6CB
100
AcDbEntity
  8
0
100
AcDbBlockEnd
  0
BLOCK
  5
7B5
330
7AA
100
AcDbEntity
  8
0
100
AcDbBlockBegin
  2
*D16
 70
     1
 10
0.0
 20
0.0
 30
0.0
  3
*D16
  1

  0
LINE
  5
865
330
7AA
100
AcDbEntity
  8
Bemaßungen(TC_020513_DIN)
  6
Continuous
 62
     7
370
    25
100
AcDbLine
 10
498.2849923098459
 20
207.1061261279303
 30
0.0
 11
556.7849923098492
 21
207.1061261279303
 31
0.0
  0
LINE
  5
866
330
7AA
100
AcDbEntity
  8
Bemaßungen(TC_020513_DIN)
  6
Continuous
 62
     7
370
    25
100
AcDbLine
 10
486.7849923098492
 20
270.1061261279303
 30
0.0
 11
556.7849923098493
 21
270.1061261279303
 31
0.0
  0
LINE
  5
867
330
7AA
100
AcDbEntity
  8
Bemaßungen(TC_020513_DIN)
  6
Continuous
 62
     7
370
    25
100
AcDbLine
 10
552.7849923098492
 20
212.1061261279304
 30
0.0
 11
552.7849923098493
 21
265.1061261279303
 31
0.0
  0
SOLID
  5
868
330
7AA
100
AcDbEntity
  8
Bemaßungen(TC_020513_DIN)
  6
Continuous
 62
     7
100
AcDbTrace
 10
551.9516589765158
 20
212.1061261279304
 30
0.0
 11
553.6183256431826
 21
212.1061261279304
 31
0.0
 12
552.7849923098492
 22
207.1061261279303
 32
0.0
 13
552.7849923098492
 23
207.1061261279303
 33
0.0
  0
SOLID
  5
869
330
7AA
100
AcDbEntity
  8
Bemaßungen(TC_020513_DIN)
  6
Continuous
 62
     7
100
AcDbTrace
 10
551.9516589765159
 20
265.1061261279303
 30
0.0
 11
553.6183256431827
 21
265.1061261279303
 31
0.0
 12
552.7849923098493
 22
270.1061261279303
 32
0.0
 13
552.7849923098493
 23
270.1061261279303
 33
0.0
  0
MTEXT
  5
86A
330
7AA
100
AcDbEntity
  8
Bemaßungen(TC_020513_DIN)
  6
Continuous
 62
     7
370
    25
100
AcDbMText
 10
544.0321955840649
 20
233.5733839724051
 30
0.0
 40
7.0
 41
0.0
 71
     1
 72
     1
  1
\A1;63
  7
Aktuell-BSI
 11
0.0000000000000001
 21
1.0
 31
0.0
 73
     1
 44
1.0
1001
ACAD
1000
MTEXTBEGIN
1070
    73
1070
     1
1070
    44
1040
1.0
1070
    74
1070
     0
1000
MTEXTEND
  0
POINT
  5
86B
330
7AA
100
AcDbEntity
  8
Defpoints
  6
Continuous
 62
     0
100
AcDbPoint
 10
496.2849923098459
 20
207.1061261279303
 30
0.0
  0
POINT
  5
86C
330
7AA
100
AcDbEntity
  8
Defpoints
  6
Continuous
 62
     0
100
AcDbPoint
 10
484.7849923098492
 20
270.1061261279303
 30
0.0
  0
POINT
  5
86D
330
7AA
100
AcDbEntity
  8
Defpoints
  6
Continuous
 62
     0
100
AcDbPoint
 10
552.7849923098493
 20
270.1061261279303
 30
0.0
  0
ENDBLK
  5
7B6
330
7AA
100
AcDbEntity
  8
0
100
AcDbBlockEnd
  0
BLOCK
  5
87D
330
872
100
AcDbEntity
  8
0
100
AcDbBlockBegin
  2
*D17
 70
     1
 10
0.0
 20
0.0
 30
0.0
  3
*D17
  1

  0
LINE
  5
92D
330
872
100
AcDbEntity
  8
Bemaßungen(TC_020513_DIN)
  6
Continuous
 62
     7
370
    25
100
AcDbLine
 10
248.205237375912
 20
200.1061261279303
 30
0.0
 11
248.205237375912
 21
178.1061261279303
 31
0.0
  0
LINE
  5
92E
330
872
100
AcDbEntity
  8
Bemaßungen(TC_020513_DIN)
  6
Continuous
 62
     7
370
    25
100
AcDbLine
 10
353.205237375912
 20
200.1061261279303
 30
0.0
 11
353.205237375912
 21
178.1061261279303
 31
0.0
  0
LINE
  5
92F
330
872
100
AcDbEntity
  8
Bemaßungen(TC_020513_DIN)
  6
Continuous
 62
     7
370
    25
100
AcDbLine
 10
253.205237375912
 20
182.1061261279303
 30
0.0
 11
348.205237375912
 21
182.1061261279303
 31
0.0
  0
SOLID
  5
930
330
872
100
AcDbEntity
  8
Bemaßungen(TC_020513_DIN)
  6
Continuous
 62
     7
100
AcDbTrace
 10
253.205237375912
 20
182.9394594612637
 30
0.0
 11
253.205237375912
 21
181.272792794597
 31
0.0
 12
248.205237375912
 22
182.1061261279303
 32
0.0
 13
248.205237375912
 23
182.1061261279303
 33
0.0
  0
SOLID
  5
931
330
872
100
AcDbEntity
  8
Bemaßungen(TC_020513_DIN)
  6
Continuous
 62
     7
100
AcDbTrace
 10
348.205237375912
 20
182.9394594612637
 30
0.0
 11
348.205237375912
 21
181.272792794597
 31
0.0
 12
353.205237375912
 22
182.1061261279303
 32
0.0
 13
353.205237375912
 23
182.1061261279303
 33
0.0
  0
MTEXT
  5
932
330
872
100
AcDbEntity
  8
Bemaßungen(TC_020513_DIN)
  6
Continuous
 62
     7
370
    25
100
AcDbMText
 10
293.2754965846432
 20
190.854147956034
 30
0.0
 40
7.0
 41
0.0
 71
     1
 72
     1
  1
\A1;105
  7
Aktuell-BSI
 73
     1
 44
1.0
1001
ACAD
1000
MTEXTBEGIN
1070
    73
1070
     1
1070
    44
1040
1.0
1070
    74
1070
     0
1000
MTEXTEND
  0
POINT
  5
933
330
872
100
AcDbEntity
  8
Defpoints
  6
Continuous
 62
     0
100
AcDbPoint
 10
248.205237375912
 20
202.1061261279303
 30
0.0
  0
POINT
  5
934
330
872
100
AcDbEntity
  8
Defpoints
  6
Continuous
 62
     0
100
AcDbPoint
 10
353.205237375912
 20
202.1061261279303
 30
0.0
  0
POINT
  5
935
330
872
100
AcDbEntity
  8
Defpoints
  6
Continuous
 62
     0
100
AcDbPoint
 10
353.205237375912
 20
182.1061261279303
 30
0.0
  0
ENDBLK
  5
87E
330
872
100
AcDbEntity
  8
0
100
AcDbBlockEnd
  0
BLOCK
  5
942
330
937
100
AcDbEntity
  8
0
100
AcDbBlockBegin
  2
*D18
 70
     1
 10
0.0
 20
0.0
 30
0.0
  3
*D18
  1

  0
LINE
  5
9F2
330
937
100
AcDbEntity
  8
Bemaßungen(TC_020513_DIN)
  6
Continuous
 62
     7
370
    25
100
AcDbLine
 10
242.205237375912
 20
216.0511261279304
 30
0.0
 11
242.205237375912
 21
161.1061261279303
 31
0.0
  0
LINE
  5
9F3
330
937
100
AcDbEntity
  8
Bemaßungen(TC_020513_DIN)
  6
Continuous
 62
     7
370
    25
100
AcDbLine
 10
359.205237375912
 20
216.0511261279304
 30
0.0
 11
359.205237375912
 21
161.1061261279303
 31
0.0
  0
LINE
  5
9F4
330
937
100
AcDbEntity
  8
Bemaßungen(TC_020513_DIN)
  6
Continuous
 62
     7
370
    25
100
AcDbLine
 10
247.205237375912
 20
165.1061261279303
 30
0.0
 11
354.205237375912
 21
165.1061261279303
 31
0.0
  0
SOLID
  5
9F5
330
937
100
AcDbEntity
  8
Bemaßungen(TC_020513_DIN)
  6
Continuous
 62
     7
100
AcDbTrace
 10
247.205237375912
 20
165.9394594612637
 30
0.0
 11
247.205237375912
 21
164.272792794597
 31
0.0
 12
242.205237375912
 22
165.1061261279303
 32
0.0
 13
242.205237375912
 23
165.1061261279303
 33
0.0
  0
SOLID
  5
9F6
330
937
100
AcDbEntity
  8
Bemaßungen(TC_020513_DIN)
  6
Continuous
 62
     7
100
AcDbTrace
 10
354.205237375912
 20
165.9394594612637
 30
0.0
 11
354.205237375912
 21
164.272792794597
 31
0.0
 12
359.205237375912
 22
165.1061261279303
 32
0.0
 13
359.205237375912
 23
165.1061261279303
 33
0.0
  0
MTEXT
  5
9F7
330
937
100
AcDbEntity
  8
Bemaßungen(TC_020513_DIN)
  6
Continuous
 62
     7
370
    25
100
AcDbMText
 10
293.3017585218875
 20
173.7347755140149
 30
0.0
 40
7.0
 41
0.0
 71
     1
 72
     1
  1
\A1;117
  7
Aktuell-BSI
 73
     1
 44
1.0
1001
ACAD
1000
MTEXTBEGIN
1070
    73
1070
     1
1070
    44
1040
1.0
1070
    74
1070
     0
1000
MTEXTEND
  0
POINT
  5
9F8
330
937
100
AcDbEntity
  8
Defpoints
  6
Continuous
 62
     0
100
AcDbPoint
 10
242.205237375912
 20
218.0511261279304
 30
0.0
  0
POINT
  5
9F9
330
937
100
AcDbEntity
  8
Defpoints
  6
Continuous
 62
     0
100
AcDbPoint
 10
359.205237375912
 20
218.0511261279304
 30
0.0
  0
POINT
  5
9FA
330
937
100
AcDbEntity
  8
Defpoints
  6
Continuous
 62
     0
100
AcDbPoint
 10
359.205237375912
 20
165.1061261279303
 30
0.0
  0
ENDBLK
  5
943
330
937
100
AcDbEntity
  8
0
100
AcDbBlockEnd
  0
BLOCK
  5
A07
330
9FC
100
AcDbEntity
  8
0
100
AcDbBlockBegin
  2
*D19
 70
     1
 10
0.0
 20
0.0
 30
0.0
  3
*D19
  1

  0
LINE
  5
AB7
330
9FC
100
AcDbEntity
  8
Bemaßungen(TC_020513_DIN)
  6
Continuous
 62
     7
370
    25
100
AcDbLine
 10
360.705237375912
 20
210.4441261279303
 30
0.0
 11
394.7052373759121
 21
210.4441261279303
 31
0.0
  0
LINE
  5
AB8
330
9FC
100
AcDbEntity
  8
Bemaßungen(TC_020513_DIN)
  6
Continuous
 62
     7
370
    25
100
AcDbLine
 10
360.705237375912
 20
239.5481261279304
 30
0.0
 11
394.7052373759121
 21
239.5481261279304
 31
0.0
  0
LINE
  5
AB9
330
9FC
100
AcDbEntity
  8
Bemaßungen(TC_020513_DIN)
  6
Continuous
 62
     7
370
    25
100
AcDbLine
 10
390.7052373759121
 20
215.4441261279304
 30
0.0
 11
390.7052373759121
 21
234.5481261279303
 31
0.0
  0
SOLID
  5
ABA
330
9FC
100
AcDbEntity
  8
Bemaßungen(TC_020513_DIN)
  6
Continuous
 62
     7
100
AcDbTrace
 10
389.8719040425788
 20
215.4441261279304
 30
0.0
 11
391.5385707092454
 21
215.4441261279304
 31
0.0
 12
390.7052373759121
 22
210.4441261279303
 32
0.0
 13
390.7052373759121
 23
210.4441261279303
 33
0.0
  0
SOLID
  5
ABB
330
9FC
100
AcDbEntity
  8
Bemaßungen(TC_020513_DIN)
  6
Continuous
 62
     7
100
AcDbTrace
 10
389.8719040425788
 20
234.5481261279303
 30
0.0
 11
391.5385707092454
 21
234.5481261279303
 31
0.0
 12
390.7052373759121
 22
239.5481261279304
 32
0.0
 13
390.7052373759121
 23
239.5481261279304
 33
0.0
  0
MTEXT
  5
ABC
330
9FC
100
AcDbEntity
  8
Bemaßungen(TC_020513_DIN)
  6
Continuous
 62
     7
370
    25
100
AcDbMText
 10
381.8664924918738
 20
212.4094958414365
 30
0.0
 40
7.0
 41
0.0
 71
     1
 72
     1
  1
\A1; PG21
  7
Aktuell-BSI
 11
0.0000000000000001
 21
1.0
 31
0.0
 73
     1
 44
1.0
1001
ACAD
1000
MTEXTBEGIN
1070
    73
1070
     1
1070
    44
1040
1.0
1070
    74
1070
     0
1000
MTEXTEND
  0
POINT
  5
ABD
330
9FC
100
AcDbEntity
  8
Defpoints
  6
Continuous
 62
     0
100
AcDbPoint
 10
358.705237375912
 20
210.4441261279303
 30
0.0
  0
POINT
  5
ABE
330
9FC
100
AcDbEntity
  8
Defpoints
  6
Continuous
 62
     0
100
AcDbPoint
 10
358.705237375912
 20
239.5481261279304
 30
0.0
  0
POINT
  5
ABF
330
9FC
100
AcDbEntity
  8
Defpoints
  6
Continuous
 62
     0
100
AcDbPoint
 10
390.7052373759121
 20
239.5481261279304
 30
0.0
  0
ENDBLK
  5
A08
330
9FC
100
AcDbEntity
  8
0
100
AcDbBlockEnd
  0
ENDSEC
  0
SECTION
  2
ENTITIES
  0
INSERT
  5
153
330
37
100
AcDbEntity
  8
0
100
AcDbBlockReference
  2
Ränder Ilme Rahmen A4 quer
 10
0.0
 20
0.0
 30
0.0
 41
2.0
 42
2.0
 43
2.0
  0
INSERT
  5
1C7
330
37
100
AcDbEntity
  8
0
100
AcDbBlockReference
 66
     1
  2
Schriftfelder Ilme
 10
174.039620099394
 20
-0.0012801852524968
 30
0.0
 41
2.0
 42
2.0
 43
2.0
  0
ATTRIB
  5
1C9
330
1C7
100
AcDbEntity
  8
Symbole(ISO)
 62
     7
100
AcDbText
 10
276.0000000000001
 20
23.49999994039527
 30
0.0
 40
8.000000119209289
  1
surface mounting h. 2 lev. PG21
  7
Kopie von TC 5 mm
 11
276.0000000000001
 21
27.49999999999991
 31
0.0
100
AcDbAttribute
  2
BEZEICHNUNG
 70
     0
 74
     2
  0
ATTRIB
  5
1CA
330
1C7
100
AcDbEntity
  8
Symbole(ISO)
 62
     7
100
AcDbText
 10
502.6109142833485
 20
24.99999999999991
 30
0.0
 40
10.0
  1
1:2
 41
0.899999976158142
  7
TC 5 mm
 72
     1
 11
511.35
 21
29.99999999999991
 31
0.0
100
AcDbAttribute
  2
FirstViewScale
 70
     0
 74
     2
  0
ATTRIB
  5
1CB
330
1C7
100
AcDbEntity
  8
Symbole(ISO)
 62
     7
100
AcDbText
 10
276.0000000000001
 20
38.49999994039527
 30
0.0
 40
8.000000119209289
  1
CHP 16
 41
1.199999928474426
  7
Kopie von TC 5 mm
 11
276.0000000000001
 21
42.49999999999992
 31
0.0
100
AcDbAttribute
  2
BAUTEILNUMMER
 70
     0
 74
     2
  0
SEQEND
  5
1C8
330
1C7
100
AcDbEntity
  8
0
  0
LINE
  5
1CC
330
37
100
AcDbEntity
  8
Sichtbare Kanten(TC_020513_DIN)
100
AcDbLine
 10
348.2052373759121
 20
207.6061261279304
 30
0.0
 11
347.9731865683432
 21
207.6061261279304
 31
0.0
  0
LINE
  5
1CD
330
37
100
AcDbEntity
  8
Sichtbare Kanten(TC_020513_DIN)
100
AcDbLine
 10
336.245945232391
 20
207.6061261279304
 30
0.0
 11
336.7459452323909
 21
207.6061261279304
 31
0.0
  0
LINE
  5
1CE
330
37
100
AcDbEntity
  8
Sichtbare Kanten(TC_020513_DIN)
100
AcDbLine
 10
264.6645295194331
 20
207.6061261279304
 30
0.0
 11
265.164529519433
 21
207.6061261279304
 31
0.0
  0
LINE
  5
1CF
330
37
100
AcDbEntity
  8
Sichtbare Kanten(TC_020513_DIN)
100
AcDbLine
 10
253.4372881834809
 20
207.6061261279304
 30
0.0
 11
253.205237375912
 21
207.6061261279304
 31
0.0
  0
LINE
  5
1D0
330
37
100
AcDbEntity
  8
Sichtbare Kanten(TC_020513_DIN)
100
AcDbLine
 10
348.205237375912
 20
207.6061261279304
 30
0.0
 11
348.205237375912
 21
207.1061261279303
 31
0.0
  0
LINE
  5
1D1
330
37
100
AcDbEntity
  8
Sichtbare Kanten(TC_020513_DIN)
100
AcDbLine
 10
359.205237375912
 20
207.1061261279304
 30
0.0
 11
358.205237375912
 21
207.1061261279304
 31
0.0
  0
LINE
  5
1D2
330
37
100
AcDbEntity
  8
Sichtbare Kanten(TC_020513_DIN)
100
AcDbLine
 10
348.4731865683432
 20
207.1061261279304
 30
0.0
 11
348.205237375912
 21
207.1061261279304
 31
0.0
  0
LINE
  5
1D3
330
37
100
AcDbEntity
  8
Sichtbare Kanten(TC_020513_DIN)
100
AcDbLine
 10
242.205237375912
 20
211.1061261279304
 30
0.0
 11
243.205237375912
 21
211.1061261279304
 31
0.0
  0
LINE
  5
1D4
330
37
100
AcDbEntity
  8
Sichtbare Kanten(TC_020513_DIN)
100
AcDbLine
 10
243.205237375912
 20
207.1061261279304
 30
0.0
 11
242.205237375912
 21
207.1061261279304
 31
0.0
  0
LINE
  5
1D5
330
37
100
AcDbEntity
  8
Sichtbare Kanten(TC_020513_DIN)
100
AcDbLine
 10
253.205237375912
 20
207.1061261279304
 30
0.0
 11
252.9372881834809
 21
207.1061261279304
 31
0.0
  0
LINE
  5
1D6
330
37
100
AcDbEntity
  8
Sichtbare Kanten(TC_020513_DIN)
100
AcDbLine
 10
253.205237375912
 20
207.1061261279303
 30
0.0
 11
253.205237375912
 21
207.6061261279304
 31
0.0
  0
LINE
  5
1D7
330
37
100
AcDbEntity
  8
Sichtbare Kanten(TC_020513_DIN)
100
AcDbLine
 10
358.205237375912
 20
211.1061261279304
 30
0.0
 11
359.205237375912
 21
211.1061261279304
 31
0.0
  0
LINE
  5
1D8
330
37
100
AcDbEntity
  8
Sichtbare Kanten(TC_020513_DIN)
100
AcDbLine
 10
336.745945232391
 20
211.1061261279304
 30
0.0
 11
336.245945232391
 21
211.1061261279304
 31
0.0
  0
LINE
  5
1D9
330
37
100
AcDbEntity
  8
Sichtbare Kanten(TC_020513_DIN)
100
AcDbLine
 10
347.9731865683432
 20
211.1061261279304
 30
0.0
 11
348.4731865683432
 21
211.1061261279304
 31
0.0
  0
LINE
  5
1DA
330
37
100
AcDbEntity
  8
Sichtbare Kanten(TC_020513_DIN)
100
AcDbLine
 10
252.9372881834809
 20
211.1061261279304
 30
0.0
 11
253.4372881834809
 21
211.1061261279304
 31
0.0
  0
LINE
  5
1DB
330
37
100
AcDbEntity
  8
Sichtbare Kanten(TC_020513_DIN)
100
AcDbLine
 10
265.1645295194331
 20
211.1061261279304
 30
0.0
 11
264.6645295194331
 21
211.1061261279304
 31
0.0
  0
LINE
  5
1DC
330
37
100
AcDbEntity
  8
Sichtbare Kanten(TC_020513_DIN)
100
AcDbLine
 10
347.9731865683431
 20
207.6061261279304
 30
0.0
 11
336.7459452323909
 21
207.6061261279304
 31
0.0
  0
LINE
  5
1DD
330
37
100
AcDbEntity
  8
Sichtbare Kanten(TC_020513_DIN)
100
AcDbLine
 10
253.4372881834809
 20
207.6061261279304
 30
0.0
 11
264.6645295194331
 21
207.6061261279304
 31
0.0
  0
LINE
  5
1DE
330
37
100
AcDbEntity
  8
Sichtbare Kanten(TC_020513_DIN)
100
AcDbLine
 10
336.7459452323909
 20
211.1061261279304
 30
0.0
 11
347.9731865683431
 21
211.1061261279304
 31
0.0
  0
LINE
  5
1DF
330
37
100
AcDbEntity
  8
Sichtbare Kanten(TC_020513_DIN)
100
AcDbLine
 10
264.6645295194331
 20
211.1061261279304
 30
0.0
 11
253.4372881834809
 21
211.1061261279304
 31
0.0
  0
LINE
  5
1E0
330
37
100
AcDbEntity
  8
Sichtbare Kanten(TC_020513_DIN)
100
AcDbLine
 10
336.245945232391
 20
207.6061261279304
 30
0.0
 11
265.1645295194331
 21
207.6061261279304
 31
0.0
  0
LINE
  5
1E1
330
37
100
AcDbEntity
  8
Sichtbare Kanten(TC_020513_DIN)
100
AcDbLine
 10
348.4731865683432
 20
207.1061261279303
 30
0.0
 11
358.205237375912
 21
207.1061261279303
 31
0.0
  0
LINE
  5
1E2
330
37
100
AcDbEntity
  8
Sichtbare Kanten(TC_020513_DIN)
100
AcDbLine
 10
252.9372881834809
 20
207.1061261279303
 30
0.0
 11
243.205237375912
 21
207.1061261279303
 31
0.0
  0
LINE
  5
1E3
330
37
100
AcDbEntity
  8
Sichtbare Kanten(TC_020513_DIN)
100
AcDbLine
 10
252.9372881834809
 20
211.1061261279304
 30
0.0
 11
243.205237375912
 21
211.1061261279304
 31
0.0
  0
LINE
  5
1E4
330
37
100
AcDbEntity
  8
Sichtbare Kanten(TC_020513_DIN)
100
AcDbLine
 10
348.4731865683432
 20
211.1061261279304
 30
0.0
 11
358.205237375912
 21
211.1061261279304
 31
0.0
  0
LINE
  5
1E5
330
37
100
AcDbEntity
  8
Sichtbare Kanten(TC_020513_DIN)
100
AcDbLine
 10
242.205237375912
 20
211.1061261279304
 30
0.0
 11
242.205237375912
 21
207.1061261279303
 31
0.0
  0
LINE
  5
1E6
330
37
100
AcDbEntity
  8
Sichtbare Kanten(TC_020513_DIN)
100
AcDbLine
 10
242.205237375912
 20
211.1061261279304
 30
0.0
 11
242.205237375912
 21
224.9961261279304
 31
0.0
  0
LINE
  5
1E7
330
37
100
AcDbEntity
  8
Sichtbare Kanten(TC_020513_DIN)
100
AcDbLine
 10
242.205237375912
 20
240.1361261279304
 30
0.0
 11
242.205237375912
 21
224.9961261279304
 31
0.0
  0
LINE
  5
1E8
330
37
100
AcDbEntity
  8
Sichtbare Kanten(TC_020513_DIN)
100
AcDbLine
 10
253.705237375912
 20
240.1361261279304
 30
0.0
 11
242.205237375912
 21
240.1361261279304
 31
0.0
  0
LINE
  5
1E9
330
37
100
AcDbEntity
  8
Sichtbare Kanten(TC_020513_DIN)
100
AcDbLine
 10
359.205237375912
 20
240.1361261279304
 30
0.0
 11
359.205237375912
 21
224.9961261279304
 31
0.0
  0
LINE
  5
1EA
330
37
100
AcDbEntity
  8
Sichtbare Kanten(TC_020513_DIN)
100
AcDbLine
 10
359.205237375912
 20
211.1061261279304
 30
0.0
 11
359.205237375912
 21
224.9961261279304
 31
0.0
  0
LINE
  5
1EB
330
37
100
AcDbEntity
  8
Sichtbare Kanten(TC_020513_DIN)
100
AcDbLine
 10
359.205237375912
 20
207.1061261279303
 30
0.0
 11
359.205237375912
 21
211.1061261279304
 31
0.0
  0
LINE
  5
1EC
330
37
100
AcDbEntity
  8
Sichtbare Kanten(TC_020513_DIN)
100
AcDbLine
 10
359.205237375912
 20
240.1361261279304
 30
0.0
 11
347.705237375912
 21
240.1361261279304
 31
0.0
  0
LINE
  5
1ED
330
37
100
AcDbEntity
  8
Sichtbare Kanten(TC_020513_DIN)
100
AcDbLine
 10
300.705237375912
 20
247.4811261279304
 30
0.0
 11
290.955237375912
 21
253.1061261279304
 31
0.0
  0
LINE
  5
1EE
330
37
100
AcDbEntity
  8
Sichtbare Kanten(TC_020513_DIN)
100
AcDbLine
 10
290.955237375912
 20
253.1061261279304
 30
0.0
 11
300.705237375912
 21
258.7311261279303
 31
0.0
  0
LINE
  5
1EF
330
37
100
AcDbEntity
  8
Sichtbare Kanten(TC_020513_DIN)
100
AcDbLine
 10
300.705237375912
 20
258.7311261279303
 30
0.0
 11
310.455237375912
 21
253.1061261279304
 31
0.0
  0
LINE
  5
1F0
330
37
100
AcDbEntity
  8
Sichtbare Kanten(TC_020513_DIN)
100
AcDbLine
 10
310.455237375912
 20
253.1061261279304
 30
0.0
 11
300.705237375912
 21
247.4811261279304
 31
0.0
  0
LINE
  5
1F1
330
37
100
AcDbEntity
  8
Sichtbare Kanten(TC_020513_DIN)
100
AcDbLine
 10
303.330237375912
 20
250.5106932354134
 30
0.0
 11
303.330237375912
 21
255.7015590204474
 31
0.0
  0
ARC
  5
1F2
330
37
100
AcDbEntity
  8
Sichtbare Kanten(TC_020513_DIN)
100
AcDbCircle
 10
303.705237375912
 20
250.5106932354134
 30
0.0
 40
0.375
100
AcDbArc
 50
180.0
 51
299.9816393688477
  0
LINE
  5
1F3
330
37
100
AcDbEntity
  8
Sichtbare Kanten(TC_020513_DIN)
100
AcDbLine
 10
306.1426332959706
 20
251.4839505637221
 30
0.0
 11
303.8926332959706
 21
250.1858736406452
 31
0.0
  0
ARC
  5
1F4
330
37
100
AcDbEntity
  8
Sichtbare Kanten(TC_020513_DIN)
100
AcDbCircle
 10
305.955237375912
 20
251.8087701584903
 30
0.0
 40
0.3750000000000007
100
AcDbArc
 50
299.9816393688477
 51
119.9816393688477
  0
LINE
  5
1F5
330
37
100
AcDbEntity
  8
Sichtbare Kanten(TC_020513_DIN)
100
AcDbLine
 10
304.080237375912
 20
251.1599720148308
 30
0.0
 11
305.7678414558534
 21
252.1335897532586
 31
0.0
  0
LINE
  5
1F6
330
37
100
AcDbEntity
  8
Sichtbare Kanten(TC_020513_DIN)
100
AcDbLine
 10
304.080237375912
 20
252.7311261279304
 30
0.0
 11
304.080237375912
 21
251.1599720148308
 31
0.0
  0
LINE
  5
1F7
330
37
100
AcDbEntity
  8
Sichtbare Kanten(TC_020513_DIN)
100
AcDbLine
 10
305.955237375912
 20
252.7311261279304
 30
0.0
 11
304.080237375912
 21
252.7311261279304
 31
0.0
  0
ARC
  5
1F8
330
37
100
AcDbEntity
  8
Sichtbare Kanten(TC_020513_DIN)
100
AcDbCircle
 10
305.955237375912
 20
253.1061261279304
 30
0.0
 40
0.3750000000000009
100
AcDbArc
 50
270.0
 51
90.0
  0
LINE
  5
1F9
330
37
100
AcDbEntity
  8
Sichtbare Kanten(TC_020513_DIN)
100
AcDbLine
 10
304.080237375912
 20
253.4811261279304
 30
0.0
 11
305.955237375912
 21
253.4811261279304
 31
0.0
  0
LINE
  5
1FA
330
37
100
AcDbEntity
  8
Sichtbare Kanten(TC_020513_DIN)
100
AcDbLine
 10
304.080237375912
 20
255.0522802410299
 30
0.0
 11
304.080237375912
 21
253.4811261279304
 31
0.0
  0
LINE
  5
1FB
330
37
100
AcDbEntity
  8
Sichtbare Kanten(TC_020513_DIN)
100
AcDbLine
 10
305.7678414558534
 20
254.0786625026022
 30
0.0
 11
304.080237375912
 21
255.0522802410299
 31
0.0
  0
ARC
  5
1FC
330
37
100
AcDbEntity
  8
Sichtbare Kanten(TC_020513_DIN)
100
AcDbCircle
 10
305.955237375912
 20
254.4034820973704
 30
0.0
 40
0.3749999999999993
100
AcDbArc
 50
240.0183606311523
 51
60.01836063115228
  0
LINE
  5
1FD
330
37
100
AcDbEntity
  8
Sichtbare Kanten(TC_020513_DIN)
100
AcDbLine
 10
303.8926332959706
 20
256.0263786152155
 30
0.0
 11
306.1426332959706
 21
254.7283016921387
 31
0.0
  0
ARC
  5
1FE
330
37
100
AcDbEntity
  8
Sichtbare Kanten(TC_020513_DIN)
100
AcDbCircle
 10
303.705237375912
 20
255.7015590204474
 30
0.0
 40
0.3749999999999976
100
AcDbArc
 50
60.0183606311476
 51
180.0
  0
ARC
  5
1FF
330
37
100
AcDbEntity
  8
Sichtbare Kanten(TC_020513_DIN)
100
AcDbCircle
 10
296.130237375912
 20
254.7929051742935
 30
0.0
 40
0.3749999999999998
100
AcDbArc
 50
0.0
 51
180.0
  0
LINE
  5
200
330
37
100
AcDbEntity
  8
Sichtbare Kanten(TC_020513_DIN)
100
AcDbLine
 10
295.755237375912
 20
251.4193470815672
 30
0.0
 11
295.755237375912
 21
254.7929051742935
 31
0.0
  0
ARC
  5
201
330
37
100
AcDbEntity
  8
Sichtbare Kanten(TC_020513_DIN)
100
AcDbCircle
 10
296.130237375912
 20
251.4193470815672
 30
0.0
 40
0.3749999999999998
100
AcDbArc
 50
180.0
 51
0.0
  0
LINE
  5
202
330
37
100
AcDbEntity
  8
Sichtbare Kanten(TC_020513_DIN)
100
AcDbLine
 10
296.5052373759121
 20
254.7929051742935
 30
0.0
 11
296.5052373759121
 21
251.4193470815672
 31
0.0
  0
LINE
  5
203
330
37
100
AcDbEntity
  8
Sichtbare Kanten(TC_020513_DIN)
100
AcDbLine
 10
291.7056539269022
 20
253.1061261279304
 30
0.0
 11
300.705237375912
 21
247.9140587535017
 31
0.0
  0
LINE
  5
204
330
37
100
AcDbEntity
  8
Sichtbare Kanten(TC_020513_DIN)
100
AcDbLine
 10
300.705237375912
 20
247.9140587535017
 30
0.0
 11
309.7048208249219
 21
253.1061261279304
 31
0.0
  0
LINE
  5
205
330
37
100
AcDbEntity
  8
Sichtbare Kanten(TC_020513_DIN)
100
AcDbLine
 10
309.7048208249219
 20
253.1061261279304
 30
0.0
 11
300.705237375912
 21
258.2981935023592
 31
0.0
  0
LINE
  5
206
330
37
100
AcDbEntity
  8
Sichtbare Kanten(TC_020513_DIN)
100
AcDbLine
 10
300.705237375912
 20
258.2981935023592
 30
0.0
 11
291.7056539269022
 21
253.1061261279304
 31
0.0
  0
LINE
  5
207
330
37
100
AcDbEntity
  8
Sichtbare Kanten(TC_020513_DIN)
100
AcDbLine
 10
297.255237375912
 20
250.5539624661826
 30
0.0
 11
297.255237375912
 21
255.6582897896781
 31
0.0
  0
ARC
  5
208
330
37
100
AcDbEntity
  8
Sichtbare Kanten(TC_020513_DIN)
100
AcDbCircle
 10
297.630237375912
 20
250.5539624661826
 30
0.0
 40
0.3750000000000018
100
AcDbArc
 50
180.0
 51
240.0183606311523
  0
LINE
  5
209
330
37
100
AcDbEntity
  8
Sichtbare Kanten(TC_020513_DIN)
100
AcDbLine
 10
300.5178414558534
 20
248.4551044098759
 30
0.0
 11
297.4428414558535
 21
250.2291428714144
 31
0.0
  0
ARC
  5
20A
330
37
100
AcDbEntity
  8
Sichtbare Kanten(TC_020513_DIN)
100
AcDbCircle
 10
300.705237375912
 20
248.7799240046442
 30
0.0
 40
0.375
100
AcDbArc
 50
240.0183606311523
 51
60.01836063115228
  0
LINE
  5
20B
330
37
100
AcDbEntity
  8
Sichtbare Kanten(TC_020513_DIN)
100
AcDbLine
 10
298.005237375912
 20
250.7705489379077
 30
0.0
 11
300.8926332959707
 21
249.1047435994123
 31
0.0
  0
LINE
  5
20C
330
37
100
AcDbEntity
  8
Sichtbare Kanten(TC_020513_DIN)
100
AcDbLine
 10
298.005237375912
 20
255.6582897896781
 30
0.0
 11
298.005237375912
 21
250.7705489379077
 31
0.0
  0
ARC
  5
20D
330
37
100
AcDbEntity
  8
Sichtbare Kanten(TC_020513_DIN)
100
AcDbCircle
 10
297.630237375912
 20
255.6582897896781
 30
0.0
 40
0.3749999999999998
100
AcDbArc
 50
0.0
 51
180.0
  0
LINE
  5
20E
330
37
100
AcDbEntity
  8
Sichtbare Kanten(TC_020513_DIN)
100
AcDbLine
 10
301.830237375912
 20
255.4097059416165
 30
0.0
 11
300.705237375912
 21
253.8561261279304
 31
0.0
  0
LINE
  5
20F
330
37
100
AcDbEntity
  8
Sichtbare Kanten(TC_020513_DIN)
100
AcDbLine
 10
301.830237375912
 20
249.6453086200288
 30
0.0
 11
301.830237375912
 21
255.4097059416165
 31
0.0
  0
ARC
  5
210
330
37
100
AcDbEntity
  8
Sichtbare Kanten(TC_020513_DIN)
100
AcDbCircle
 10
302.205237375912
 20
249.6453086200288
 30
0.0
 40
0.375
100
AcDbArc
 50
180.0
 51
0.0
  0
LINE
  5
211
330
37
100
AcDbEntity
  8
Sichtbare Kanten(TC_020513_DIN)
100
AcDbLine
 10
302.580237375912
 20
256.566943635832
 30
0.0
 11
302.580237375912
 21
249.6453086200288
 31
0.0
  0
ARC
  5
212
330
37
100
AcDbEntity
  8
Sichtbare Kanten(TC_020513_DIN)
100
AcDbCircle
 10
302.205237375912
 20
256.566943635832
 30
0.0
 40
0.3750000000000002
100
AcDbArc
 50
0.0
 51
144.0904238229703
  0
LINE
  5
213
330
37
100
AcDbEntity
  8
Sichtbare Kanten(TC_020513_DIN)
100
AcDbLine
 10
300.705237375912
 20
255.1348816405706
 30
0.0
 11
301.9015085164215
 21
256.7868840366513
 31
0.0
  0
LINE
  5
214
330
37
100
AcDbEntity
  8
Sichtbare Kanten(TC_020513_DIN)
100
AcDbLine
 10
299.5089662354026
 20
256.7868840366513
 30
0.0
 11
300.705237375912
 21
255.1348816405706
 31
0.0
  0
ARC
  5
215
330
37
100
AcDbEntity
  8
Sichtbare Kanten(TC_020513_DIN)
100
AcDbCircle
 10
299.205237375912
 20
256.566943635832
 30
0.0
 40
0.3749999999999995
100
AcDbArc
 50
35.90957617702965
 51
180.0
  0
LINE
  5
216
330
37
100
AcDbEntity
  8
Sichtbare Kanten(TC_020513_DIN)
100
AcDbLine
 10
298.830237375912
 20
251.4193470815672
 30
0.0
 11
298.830237375912
 21
256.566943635832
 31
0.0
  0
ARC
  5
217
330
37
100
AcDbEntity
  8
Sichtbare Kanten(TC_020513_DIN)
100
AcDbCircle
 10
299.205237375912
 20
251.4193470815672
 30
0.0
 40
0.3749999999999987
100
AcDbArc
 50
180.0
 51
0.0
  0
LINE
  5
218
330
37
100
AcDbEntity
  8
Sichtbare Kanten(TC_020513_DIN)
100
AcDbLine
 10
299.580237375912
 20
255.4097059416164
 30
0.0
 11
299.580237375912
 21
251.4193470815672
 31
0.0
  0
LINE
  5
219
330
37
100
AcDbEntity
  8
Sichtbare Kanten(TC_020513_DIN)
100
AcDbLine
 10
300.705237375912
 20
253.8561261279304
 30
0.0
 11
299.580237375912
 21
255.4097059416164
 31
0.0
  0
LINE
  5
21A
330
37
100
AcDbEntity
  8
Sichtbare Kanten(TC_020513_DIN)
100
AcDbLine
 10
347.705237375912
 20
254.0953229482094
 30
0.0
 11
347.705237375912
 21
211.1061261279304
 31
0.0
  0
LINE
  5
21B
330
37
100
AcDbEntity
  8
Sichtbare Kanten(TC_020513_DIN)
100
AcDbLine
 10
253.705237375912
 20
254.0953229482094
 30
0.0
 11
253.705237375912
 21
211.1061261279304
 31
0.0
  0
ARC
  5
21C
330
37
100
AcDbEntity
  8
Sichtbare Kanten(TC_020513_DIN)
100
AcDbCircle
 10
227.4669179921496
 20
249.8356380035076
 30
0.0
 40
1.000000000000005
100
AcDbArc
 50
213.9999999999995
 51
303.9999999999995
  0
LINE
  5
21D
330
37
100
AcDbEntity
  8
Sichtbare Kanten(TC_020513_DIN)
100
AcDbLine
 10
229.2629291516554
 20
249.8408448784344
 30
0.0
 11
228.0261108956203
 21
249.0066004309525
 31
0.0
  0
LINE
  5
21E
330
37
100
AcDbEntity
  8
Sichtbare Kanten(TC_020513_DIN)
100
AcDbLine
 10
229.2629291516554
 20
249.8408448784344
 30
0.0
 11
234.8820141775288
 21
253.6309655852478
 31
0.0
  0
LINE
  5
21F
330
37
100
AcDbEntity
  8
Sichtbare Kanten(TC_020513_DIN)
100
AcDbLine
 10
234.8820141775288
 20
253.6309655852478
 30
0.0
 11
236.0187370309241
 21
254.3976948311524
 31
0.0
  0
POLYLINE
  5
220
330
37
100
AcDbEntity
  8
Sichtbare Kanten(TC_020513_DIN)
100
AcDb2dPolyline
 66
     1
 10
0.0
 20
0.0
 30
0.0
 70
   128
  0
VERTEX
  5
221
330
220
100
AcDbEntity
  8
Sichtbare Kanten(TC_020513_DIN)
100
AcDbVertex
100
AcDb2dVertex
 10
236.0187387339442
 20
254.3976948840339
 30
0.0
  0
VERTEX
  5
222
330
220
100
AcDbEntity
  8
Sichtbare Kanten(TC_020513_DIN)
100
AcDbVertex
100
AcDb2dVertex
 10
236.0746192805141
 20
254.4327602965553
 30
0.0
  0
VERTEX
  5
224
330
220
100
AcDbEntity
  8
Sichtbare Kanten(TC_020513_DIN)
100
AcDbVertex
100
AcDb2dVertex
 10
236.1314010493129
 20
254.4634209258277
 30
0.0
  0
VERTEX
  5
225
330
220
100
AcDbEntity
  8
Sichtbare Kanten(TC_020513_DIN)
100
AcDbVertex
100
AcDb2dVertex
 10
236.1887264124721
 20
254.489805517884
 30
0.0
  0
VERTEX
  5
226
330
220
100
AcDbEntity
  8
Sichtbare Kanten(TC_020513_DIN)
100
AcDbVertex
100
AcDb2dVertex
 10
236.2462425104945
 20
254.5120475871283
 30
0.0
  0
VERTEX
  5
227
330
220
100
AcDbEntity
  8
Sichtbare Kanten(TC_020513_DIN)
100
AcDbVertex
100
AcDb2dVertex
 10
236.3035678736537
 20
254.5303176028449
 30
0.0
  0
VERTEX
  5
228
330
220
100
AcDbEntity
  8
Sichtbare Kanten(TC_020513_DIN)
100
AcDbVertex
100
AcDb2dVertex
 10
236.3605213038295
 20
254.5448134524543
 30
0.0
  0
VERTEX
  5
229
330
220
100
AcDbEntity
  8
Sichtbare Kanten(TC_020513_DIN)
100
AcDbVertex
100
AcDb2dVertex
 10
236.4170026652187
 20
254.5557151419837
 30
0.0
  0
VERTEX
  5
22A
330
220
100
AcDbEntity
  8
Sichtbare Kanten(TC_020513_DIN)
100
AcDbVertex
100
AcDb2dVertex
 10
236.4729308955043
 20
254.5632014853675
 30
0.0
  0
VERTEX
  5
22B
330
220
100
AcDbEntity
  8
Sichtbare Kanten(TC_020513_DIN)
100
AcDbVertex
100
AcDb2dVertex
 10
236.5282153956264
 20
254.5674524886329
 30
0.0
  0
VERTEX
  5
22C
330
220
100
AcDbEntity
  8
Sichtbare Kanten(TC_020513_DIN)
100
AcDbVertex
100
AcDb2dVertex
 10
236.5827607981533
 20
254.5686469657142
 30
0.0
  0
VERTEX
  5
22D
330
220
100
AcDbEntity
  8
Sichtbare Kanten(TC_020513_DIN)
100
AcDbVertex
100
AcDb2dVertex
 10
236.6364621989101
 20
254.5669589621741
 30
0.0
  0
VERTEX
  5
22E
330
220
100
AcDbEntity
  8
Sichtbare Kanten(TC_020513_DIN)
100
AcDbVertex
100
AcDb2dVertex
 10
236.6891908518642
 20
254.562511263581
 30
0.0
  0
VERTEX
  5
22F
330
220
100
AcDbEntity
  8
Sichtbare Kanten(TC_020513_DIN)
100
AcDbVertex
100
AcDb2dVertex
 10
236.7408990732997
 20
254.5554004294593
 30
0.0
  0
VERTEX
  5
230
330
220
100
AcDbEntity
  8
Sichtbare Kanten(TC_020513_DIN)
100
AcDbVertex
100
AcDb2dVertex
 10
236.7915296427577
 20
254.5457254035194
 30
0.0
  0
VERTEX
  5
231
330
220
100
AcDbEntity
  8
Sichtbare Kanten(TC_020513_DIN)
100
AcDbVertex
100
AcDb2dVertex
 10
236.841039644894
 20
254.5335827452857
 30
0.0
  0
VERTEX
  5
232
330
220
100
AcDbEntity
  8
Sichtbare Kanten(TC_020513_DIN)
100
AcDbVertex
100
AcDb2dVertex
 10
236.8893718592494
 20
254.5190690142829
 30
0.0
  0
VERTEX
  5
233
330
220
100
AcDbEntity
  8
Sichtbare Kanten(TC_020513_DIN)
100
AcDbVertex
100
AcDb2dVertex
 10
236.9364786021083
 20
254.5022807700355
 30
0.0
  0
VERTEX
  5
234
330
220
100
AcDbEntity
  8
Sichtbare Kanten(TC_020513_DIN)
100
AcDbVertex
100
AcDb2dVertex
 10
236.9823121897548
 20
254.4833169562537
 30
0.0
  0
VERTEX
  5
235
330
220
100
AcDbEntity
  8
Sichtbare Kanten(TC_020513_DIN)
100
AcDbVertex
100
AcDb2dVertex
 10
237.0268154017299
 20
254.4622729403693
 30
0.0
  0
VERTEX
  5
236
330
220
100
AcDbEntity
  8
Sichtbare Kanten(TC_020513_DIN)
100
AcDbVertex
100
AcDb2dVertex
 10
237.0699405543178
 20
254.4392464739997
 30
0.0
  0
VERTEX
  5
237
330
220
100
AcDbEntity
  8
Sichtbare Kanten(TC_020513_DIN)
100
AcDbVertex
100
AcDb2dVertex
 10
237.1115684382289
 20
254.4143925292213
 30
0.0
  0
VERTEX
  5
238
330
220
100
AcDbEntity
  8
Sichtbare Kanten(TC_020513_DIN)
100
AcDbVertex
100
AcDb2dVertex
 10
237.1516132227748
 20
254.387802897187
 30
0.0
  0
VERTEX
  5
239
330
220
100
AcDbEntity
  8
Sichtbare Kanten(TC_020513_DIN)
100
AcDbVertex
100
AcDb2dVertex
 10
237.1903180949062
 20
254.359270153733
 30
0.0
  0
VERTEX
  5
23A
330
220
100
AcDbEntity
  8
Sichtbare Kanten(TC_020513_DIN)
100
AcDbVertex
100
AcDb2dVertex
 10
237.2279548518031
 20
254.3285737616737
 30
0.0
  0
SEQEND
  5
223
330
220
100
AcDbEntity
  8
Sichtbare Kanten(TC_020513_DIN)
  0
LINE
  5
23B
330
37
100
AcDbEntity
  8
Sichtbare Kanten(TC_020513_DIN)
100
AcDbLine
 10
233.819837629132
 20
257.7393902509795
 30
0.0
 11
231.9432100572635
 21
256.4735889708128
 31
0.0
  0
LINE
  5
23C
330
37
100
AcDbEntity
  8
Sichtbare Kanten(TC_020513_DIN)
100
AcDbLine
 10
224.9603017091823
 20
251.763557817702
 30
0.0
 11
226.8155290932349
 21
253.0149244889248
 31
0.0
  0
LINE
  5
23D
330
37
100
AcDbEntity
  8
Sichtbare Kanten(TC_020513_DIN)
100
AcDbLine
 10
224.9603017091823
 20
251.763557817702
 30
0.0
 11
226.6378804195945
 21
249.2764451000369
 31
0.0
  0
LINE
  5
23E
330
37
100
AcDbEntity
  8
Sichtbare Kanten(TC_020513_DIN)
100
AcDbLine
 10
226.8155290932349
 20
253.0149244889248
 30
0.0
 11
231.9432100572635
 21
256.4735889708129
 31
0.0
  0
LINE
  5
23F
330
37
100
AcDbEntity
  8
Sichtbare Kanten(TC_020513_DIN)
100
AcDbLine
 10
233.7799560016734
 20
257.779271878438
 30
0.0
 11
240.8510238135389
 21
264.8503396903035
 31
0.0
  0
LINE
  5
240
330
37
100
AcDbEntity
  8
Sichtbare Kanten(TC_020513_DIN)
100
AcDbLine
 10
233.7799560016734
 20
257.779271878438
 30
0.0
 11
243.6794509382851
 21
247.8797769418263
 31
0.0
  0
LINE
  5
241
330
37
100
AcDbEntity
  8
Sichtbare Kanten(TC_020513_DIN)
100
AcDbLine
 10
250.7505187501505
 20
254.9508447536918
 30
0.0
 11
243.6794509382851
 21
247.8797769418263
 31
0.0
  0
LINE
  5
242
330
37
100
AcDbEntity
  8
Sichtbare Kanten(TC_020513_DIN)
100
AcDbLine
 10
250.7505187501505
 20
254.9508447536918
 30
0.0
 11
240.8510238135389
 21
264.8503396903035
 31
0.0
  0
LINE
  5
243
330
37
100
AcDbEntity
  8
Sichtbare Kanten(TC_020513_DIN)
100
AcDbLine
 10
235.1930440670923
 20
256.3634854408111
 30
0.0
 11
235.1943932531963
 21
256.3648346269151
 31
0.0
  0
LINE
  5
244
330
37
100
AcDbEntity
  8
Sichtbare Kanten(TC_020513_DIN)
100
AcDbLine
 10
240.8512475026886
 20
264.8501160011537
 30
0.0
 11
254.4140753213751
 21
278.4129438198402
 31
0.0
  0
LINE
  5
245
330
37
100
AcDbEntity
  8
Sichtbare Kanten(TC_020513_DIN)
100
AcDbLine
 10
250.7493932531963
 20
254.949271878438
 30
0.0
 11
250.7491695640465
 21
254.9494955675878
 31
0.0
  0
LINE
  5
246
330
37
100
AcDbEntity
  8
Sichtbare Kanten(TC_020513_DIN)
100
AcDbLine
 10
262.7259555476611
 20
251.489220490553
 30
0.0
 11
250.7493932531963
 21
254.949271878438
 31
0.0
  0
ARC
  5
247
330
37
100
AcDbEntity
  8
Sichtbare Kanten(TC_020513_DIN)
100
AcDbCircle
 10
264.113711417622
 20
256.2927747626924
 30
0.0
 40
5.000000000000017
100
AcDbArc
 50
253.8858946576203
 51
294.1001619798737
  0
LINE
  5
248
330
37
100
AcDbEntity
  8
Sichtbare Kanten(TC_020513_DIN)
100
AcDbLine
 10
270.0327552413548
 20
253.4630580776278
 30
0.0
 11
266.1553766228067
 21
251.7286096484642
 31
0.0
  0
ARC
  5
249
330
37
100
AcDbEntity
  8
Sichtbare Kanten(TC_020513_DIN)
100
AcDbCircle
 10
269.135237375912
 20
278.2861261279304
 30
0.0
 40
5.499999999999998
100
AcDbArc
 50
163.5551937746092
 51
104.4316698842331
  0
CIRCLE
  5
24A
330
37
100
AcDbEntity
  8
Sichtbare Kanten(TC_020513_DIN)
100
AcDbCircle
 10
269.135237375912
 20
278.2861261279304
 30
0.0
 40
1.25
  0
CIRCLE
  5
24B
330
37
100
AcDbEntity
  8
Sichtbare Kanten(TC_020513_DIN)
100
AcDbCircle
 10
264.115237375912
 20
256.2961261279304
 30
0.0
 40
1.250000000000004
  0
ARC
  5
24C
330
37
100
AcDbEntity
  8
Sichtbare Kanten(TC_020513_DIN)
100
AcDbCircle
 10
267.5431793063768
 20
269.2681841974656
 30
0.0
 40
16.0
100
AcDbArc
 50
135.0
 51
306.8079124836953
  0
ARC
  5
24D
330
37
100
AcDbEntity
  8
Sichtbare Kanten(TC_020513_DIN)
100
AcDbCircle
 10
269.0037730628692
 20
259.7686228455665
 30
0.0
 40
3.499999999999998
100
AcDbArc
 50
215.4059317731404
 51
343.7330234708313
  0
ARC
  5
24E
330
37
100
AcDbEntity
  8
Sichtbare Kanten(TC_020513_DIN)
100
AcDbCircle
 10
264.1133661490123
 20
256.2924294940826
 30
0.0
 40
2.5
100
AcDbArc
 50
35.40593177313957
 51
124.089624075714
  0
ARC
  5
24F
330
37
100
AcDbEntity
  8
Sichtbare Kanten(TC_020513_DIN)
100
AcDbCircle
 10
260.7504319775431
 20
261.2614005906343
 30
0.0
 40
3.500000000000015
100
AcDbArc
 50
229.6895915085291
 51
304.0896240757142
  0
ARC
  5
250
330
37
100
AcDbEntity
  8
Sichtbare Kanten(TC_020513_DIN)
100
AcDbCircle
 10
267.5431793063768
 20
269.2681841974656
 30
0.0
 40
14.00000000000001
100
AcDbArc
 50
135.0000000000001
 51
229.6895915085291
  0
ARC
  5
251
330
37
100
AcDbEntity
  8
Sichtbare Kanten(TC_020513_DIN)
100
AcDbCircle
 10
261.1792182756978
 20
275.6321452281445
 30
0.0
 40
5.000000000000008
100
AcDbArc
 50
60.75520239481292
 51
134.9999999999997
  0
ARC
  5
252
330
37
100
AcDbEntity
  8
Sichtbare Kanten(TC_020513_DIN)
100
AcDbCircle
 10
262.4005733201705
 20
277.8134961525354
 30
0.0
 40
2.500000000000005
100
AcDbArc
 50
3.995263120332083
 51
60.75520239481311
  0
ARC
  5
253
330
37
100
AcDbEntity
  8
Sichtbare Kanten(TC_020513_DIN)
100
AcDbCircle
 10
269.1341695640466
 20
278.283795657594
 30
0.0
 40
4.250000000000005
100
AcDbArc
 50
183.9952631203325
 51
53.17123355994976
  0
ARC
  5
254
330
37
100
AcDbEntity
  8
Sichtbare Kanten(TC_020513_DIN)
100
AcDbCircle
 10
264.592368315656
 20
272.2189951881863
 30
0.0
 40
11.8269230769231
100
AcDbArc
 50
53.17123355995
 51
135.0
  0
LINE
  5
255
330
37
100
AcDbEntity
  8
Sichtbare Kanten(TC_020513_DIN)
100
AcDbLine
 10
267.69239662214
 20
264.7632335719253
 30
0.0
 11
274.8428308083137
 21
264.6318370396285
 31
0.0
  0
ARC
  5
256
330
37
100
AcDbEntity
  8
Sichtbare Kanten(TC_020513_DIN)
100
AcDbCircle
 10
267.7199560016735
 20
266.2629803774228
 30
0.0
 40
1.500000000000024
100
AcDbArc
 50
212.7540081088812
 51
268.9472500103759
  0
LINE
  5
257
330
37
100
AcDbEntity
  8
Sichtbare Kanten(TC_020513_DIN)
100
AcDbLine
 10
263.8496861307034
 20
269.5065911934519
 30
0.0
 11
266.4584542508712
 21
265.4514304204127
 31
0.0
  0
ARC
  5
258
330
37
100
AcDbEntity
  8
Sichtbare Kanten(TC_020513_DIN)
100
AcDbCircle
 10
265.952189048707
 20
270.8591744551353
 30
0.0
 40
2.500000000000007
100
AcDbArc
 50
135.0
 51
212.7540081088798
  0
LINE
  5
259
330
37
100
AcDbEntity
  8
Sichtbare Kanten(TC_020513_DIN)
100
AcDbLine
 10
264.5379754863339
 20
272.9804947986949
 30
0.0
 11
264.1844220957407
 21
272.6269414081016
 31
0.0
  0
LINE
  5
25A
330
37
100
AcDbEntity
  8
Sichtbare Kanten(TC_020513_DIN)
100
AcDbLine
 10
257.7711259359745
 20
279.290684090029
 30
0.0
 11
264.5379754863339
 21
272.9804947986949
 31
0.0
  0
LINE
  5
25B
330
37
100
AcDbEntity
  8
Sichtbare Kanten(TC_020513_DIN)
100
AcDbLine
 10
242.2641118789577
 20
249.2924176289456
 30
0.0
 11
235.1930440670923
 21
256.3634854408111
 31
0.0
  0
LINE
  5
25C
330
37
100
AcDbEntity
  8
Sichtbare Kanten(TC_020513_DIN)
100
AcDbLine
 10
242.2654610650617
 20
249.2937668150497
 30
0.0
 11
242.2641118789577
 21
249.2924176289456
 31
0.0
  0
CIRCLE
  5
25D
330
37
100
AcDbEntity
  8
Sichtbare Kanten(TC_020513_DIN)
100
AcDbCircle
 10
276.205237375912
 20
260.6061261279303
 30
0.0
 40
4.249999999999997
  0
ARC
  5
25E
330
37
100
AcDbEntity
  8
Sichtbare Kanten(TC_020513_DIN)
100
AcDbCircle
 10
373.9435567596745
 20
249.8356380035076
 30
0.0
 40
0.9999999999999987
100
AcDbArc
 50
235.9999999999989
 51
326.0000000000033
  0
LINE
  5
25F
330
37
100
AcDbEntity
  8
Sichtbare Kanten(TC_020513_DIN)
100
AcDbLine
 10
373.3843638562038
 20
249.0066004309525
 30
0.0
 11
372.1475456001687
 21
249.8408448784344
 31
0.0
  0
LINE
  5
260
330
37
100
AcDbEntity
  8
Sichtbare Kanten(TC_020513_DIN)
100
AcDbLine
 10
366.5284605742953
 20
253.6309655852478
 30
0.0
 11
372.1475456001686
 21
249.8408448784344
 31
0.0
  0
LINE
  5
261
330
37
100
AcDbEntity
  8
Sichtbare Kanten(TC_020513_DIN)
100
AcDbLine
 10
365.3917377209
 20
254.3976948311524
 30
0.0
 11
366.5284605742952
 21
253.6309655852478
 31
0.0
  0
POLYLINE
  5
262
330
37
100
AcDbEntity
  8
Sichtbare Kanten(TC_020513_DIN)
100
AcDb2dPolyline
 66
     1
 10
0.0
 20
0.0
 30
0.0
 70
   128
  0
VERTEX
  5
263
330
262
100
AcDbEntity
  8
Sichtbare Kanten(TC_020513_DIN)
100
AcDbVertex
100
AcDb2dVertex
 10
364.1825151316493
 20
254.328570185395
 30
0.0
  0
VERTEX
  5
264
330
262
100
AcDbEntity
  8
Sichtbare Kanten(TC_020513_DIN)
100
AcDbVertex
100
AcDb2dVertex
 10
364.2202091090053
 20
254.3592963797767
 30
0.0
  0
VERTEX
  5
266
330
262
100
AcDbEntity
  8
Sichtbare Kanten(TC_020513_DIN)
100
AcDbVertex
100
AcDb2dVertex
 10
364.259023653683
 20
254.3878994567115
 30
0.0
  0
VERTEX
  5
267
330
262
100
AcDbEntity
  8
Sichtbare Kanten(TC_020513_DIN)
100
AcDbVertex
100
AcDb2dVertex
 10
364.2991447321742
 20
254.4145403487403
 30
0.0
  0
VERTEX
  5
268
330
262
100
AcDbEntity
  8
Sichtbare Kanten(TC_020513_DIN)
100
AcDbVertex
100
AcDb2dVertex
 10
364.340753542599
 20
254.4393716437537
 30
0.0
  0
VERTEX
  5
269
330
262
100
AcDbEntity
  8
Sichtbare Kanten(TC_020513_DIN)
100
AcDbVertex
100
AcDb2dVertex
 10
364.3837928644984
 20
254.4623504264075
 30
0.0
  0
VERTEX
  5
26A
330
262
100
AcDbEntity
  8
Sichtbare Kanten(TC_020513_DIN)
100
AcDbVertex
100
AcDb2dVertex
 10
364.4281864039272
 20
254.4833527190406
 30
0.0
  0
VERTEX
  5
26B
330
262
100
AcDbEntity
  8
Sichtbare Kanten(TC_020513_DIN)
100
AcDbVertex
100
AcDb2dVertex
 10
364.4738864771694
 20
254.5022831542213
 30
0.0
  0
VERTEX
  5
26C
330
262
100
AcDbEntity
  8
Sichtbare Kanten(TC_020513_DIN)
100
AcDbVertex
100
AcDb2dVertex
 10
364.5208597056239
 20
254.5190427882392
 30
0.0
  0
VERTEX
  5
26D
330
262
100
AcDbEntity
  8
Sichtbare Kanten(TC_020513_DIN)
100
AcDbVertex
100
AcDb2dVertex
 10
364.5690631739467
 20
254.5335362536628
 30
0.0
  0
VERTEX
  5
26E
330
262
100
AcDbEntity
  8
Sichtbare Kanten(TC_020513_DIN)
100
AcDbVertex
100
AcDb2dVertex
 10
364.6184539667934
 20
254.5456669909675
 30
0.0
  0
VERTEX
  5
26F
330
262
100
AcDbEntity
  8
Sichtbare Kanten(TC_020513_DIN)
100
AcDbVertex
100
AcDb2dVertex
 10
364.6689939371913
 20
254.5553408248145
 30
0.0
  0
VERTEX
  5
270
330
262
100
AcDbEntity
  8
Sichtbare Kanten(TC_020513_DIN)
100
AcDbVertex
100
AcDb2dVertex
 10
364.7206449381679
 20
254.5624588114936
 30
0.0
  0
VERTEX
  5
271
330
262
100
AcDbEntity
  8
Sichtbare Kanten(TC_020513_DIN)
100
AcDbVertex
100
AcDb2dVertex
 10
364.7733592860072
 20
254.5669255835731
 30
0.0
  0
VERTEX
  5
272
330
262
100
AcDbEntity
  8
Sichtbare Kanten(TC_020513_DIN)
100
AcDbVertex
100
AcDb2dVertex
 10
364.8271036021083
 20
254.5686433894355
 30
0.0
  0
VERTEX
  5
273
330
262
100
AcDbEntity
  8
Sichtbare Kanten(TC_020513_DIN)
100
AcDbVertex
100
AcDb2dVertex
 10
364.8817014567226
 20
254.5674834830482
 30
0.0
  0
VERTEX
  5
274
330
262
100
AcDbEntity
  8
Sichtbare Kanten(TC_020513_DIN)
100
AcDbVertex
100
AcDb2dVertex
 10
364.9370241038173
 20
254.563264666291
 30
0.0
  0
VERTEX
  5
275
330
262
100
AcDbEntity
  8
Sichtbare Kanten(TC_020513_DIN)
100
AcDbVertex
100
AcDb2dVertex
 10
364.9929904810756
 20
254.555803356858
 30
0.0
  0
VERTEX
  5
276
330
262
100
AcDbEntity
  8
Sichtbare Kanten(TC_020513_DIN)
100
AcDbVertex
100
AcDb2dVertex
 10
365.0495242945522
 20
254.5449171645362
 30
0.0
  0
VERTEX
  5
277
330
262
100
AcDbEntity
  8
Sichtbare Kanten(TC_020513_DIN)
100
AcDbVertex
100
AcDb2dVertex
 10
365.1065444819301
 20
254.5304236991126
 30
0.0
  0
VERTEX
  5
278
330
262
100
AcDbEntity
  8
Sichtbare Kanten(TC_020513_DIN)
100
AcDbVertex
100
AcDb2dVertex
 10
365.1639699808925
 20
254.5121393782813
 30
0.0
  0
VERTEX
  5
279
330
262
100
AcDbEntity
  8
Sichtbare Kanten(TC_020513_DIN)
100
AcDbVertex
100
AcDb2dVertex
 10
365.2215862147182
 20
254.4898746592719
 30
0.0
  0
VERTEX
  5
27A
330
262
100
AcDbEntity
  8
Sichtbare Kanten(TC_020513_DIN)
100
AcDbVertex
100
AcDb2dVertex
 10
365.2789831034511
 20
254.4634674174506
 30
0.0
  0
VERTEX
  5
27B
330
262
100
AcDbEntity
  8
Sichtbare Kanten(TC_020513_DIN)
100
AcDbVertex
100
AcDb2dVertex
 10
365.3358125559657
 20
254.4327841384132
 30
0.0
  0
VERTEX
  5
27C
330
262
100
AcDbEntity
  8
Sichtbare Kanten(TC_020513_DIN)
100
AcDbVertex
100
AcDb2dVertex
 10
365.3917360178798
 20
254.3976948840339
 30
0.0
  0
SEQEND
  5
265
330
262
100
AcDbEntity
  8
Sichtbare Kanten(TC_020513_DIN)
  0
LINE
  5
27D
330
37
100
AcDbEntity
  8
Sichtbare Kanten(TC_020513_DIN)
100
AcDbLine
 10
374.7725943322296
 20
249.2764451000369
 30
0.0
 11
376.4501730426417
 21
251.763557817702
 31
0.0
  0
LINE
  5
27E
330
37
100
AcDbEntity
  8
Sichtbare Kanten(TC_020513_DIN)
100
AcDbLine
 10
374.5949456585891
 20
253.0149244889248
 30
0.0
 11
376.4501730426417
 21
251.763557817702
 31
0.0
  0
LINE
  5
27F
330
37
100
AcDbEntity
  8
Sichtbare Kanten(TC_020513_DIN)
100
AcDbLine
 10
369.4672646945605
 20
256.4735889708128
 30
0.0
 11
367.5906371226921
 21
257.7393902509795
 31
0.0
  0
LINE
  5
280
330
37
100
AcDbEntity
  8
Sichtbare Kanten(TC_020513_DIN)
100
AcDbLine
 10
369.4672646945605
 20
256.4735889708129
 30
0.0
 11
374.5949456585892
 21
253.0149244889248
 31
0.0
  0
LINE
  5
281
330
37
100
AcDbEntity
  8
Sichtbare Kanten(TC_020513_DIN)
100
AcDbLine
 10
367.6305187501506
 20
257.779271878438
 30
0.0
 11
360.5594509382851
 21
264.8503396903035
 31
0.0
  0
LINE
  5
282
330
37
100
AcDbEntity
  8
Sichtbare Kanten(TC_020513_DIN)
100
AcDbLine
 10
367.6305187501506
 20
257.779271878438
 30
0.0
 11
357.731023813539
 21
247.8797769418263
 31
0.0
  0
LINE
  5
283
330
37
100
AcDbEntity
  8
Sichtbare Kanten(TC_020513_DIN)
100
AcDbLine
 10
350.6599560016735
 20
254.9508447536918
 30
0.0
 11
357.731023813539
 21
247.8797769418263
 31
0.0
  0
LINE
  5
284
330
37
100
AcDbEntity
  8
Sichtbare Kanten(TC_020513_DIN)
100
AcDbLine
 10
350.6599560016735
 20
254.9508447536918
 30
0.0
 11
360.5594509382851
 21
264.8503396903035
 31
0.0
  0
LINE
  5
285
330
37
100
AcDbEntity
  8
Sichtbare Kanten(TC_020513_DIN)
100
AcDbLine
 10
366.2174306847318
 20
256.3634854408111
 30
0.0
 11
366.2160814986278
 21
256.3648346269151
 31
0.0
  0
LINE
  5
286
330
37
100
AcDbEntity
  8
Sichtbare Kanten(TC_020513_DIN)
100
AcDbLine
 10
360.5592272491354
 20
264.8501160011537
 30
0.0
 11
346.9963994304488
 21
278.4129438198402
 31
0.0
  0
LINE
  5
287
330
37
100
AcDbEntity
  8
Sichtbare Kanten(TC_020513_DIN)
100
AcDbLine
 10
331.3777195104692
 20
253.4630580776278
 30
0.0
 11
335.2550981290173
 21
251.7286096484642
 31
0.0
  0
ARC
  5
288
330
37
100
AcDbEntity
  8
Sichtbare Kanten(TC_020513_DIN)
100
AcDbCircle
 10
337.296763334202
 20
256.2927747626924
 30
0.0
 40
5.000000000000017
100
AcDbArc
 50
245.899838020126
 51
286.1141053423791
  0
LINE
  5
289
330
37
100
AcDbEntity
  8
Sichtbare Kanten(TC_020513_DIN)
100
AcDbLine
 10
338.6845192041629
 20
251.489220490553
 30
0.0
 11
350.6610814986278
 21
254.949271878438
 31
0.0
  0
LINE
  5
28A
330
37
100
AcDbEntity
  8
Sichtbare Kanten(TC_020513_DIN)
100
AcDbLine
 10
350.6610814986278
 20
254.949271878438
 30
0.0
 11
350.6613051877775
 21
254.9494955675878
 31
0.0
  0
LINE
  5
28B
330
37
100
AcDbEntity
  8
Sichtbare Kanten(TC_020513_DIN)
100
AcDbLine
 10
359.1450136867623
 20
249.2937668150497
 30
0.0
 11
359.1463628728663
 21
249.2924176289456
 31
0.0
  0
LINE
  5
28C
330
37
100
AcDbEntity
  8
Sichtbare Kanten(TC_020513_DIN)
100
AcDbLine
 10
359.1463628728663
 20
249.2924176289456
 30
0.0
 11
366.2174306847318
 21
256.3634854408111
 31
0.0
  0
ARC
  5
28D
330
37
100
AcDbEntity
  8
Sichtbare Kanten(TC_020513_DIN)
100
AcDbCircle
 10
332.275237375912
 20
278.2861261279304
 30
0.0
 40
5.499999999999999
100
AcDbArc
 50
75.56833011576687
 51
16.44480622539042
  0
CIRCLE
  5
28E
330
37
100
AcDbEntity
  8
Sichtbare Kanten(TC_020513_DIN)
100
AcDbCircle
 10
332.275237375912
 20
278.2861261279304
 30
0.0
 40
1.25
  0
CIRCLE
  5
28F
330
37
100
AcDbEntity
  8
Sichtbare Kanten(TC_020513_DIN)
100
AcDbCircle
 10
337.295237375912
 20
256.2961261279304
 30
0.0
 40
1.250000000000004
  0
ARC
  5
290
330
37
100
AcDbEntity
  8
Sichtbare Kanten(TC_020513_DIN)
100
AcDbCircle
 10
333.8672954454472
 20
269.2681841974656
 30
0.0
 40
16.0
100
AcDbArc
 50
233.1920875163049
 51
45.00000000000015
  0
ARC
  5
291
330
37
100
AcDbEntity
  8
Sichtbare Kanten(TC_020513_DIN)
100
AcDbCircle
 10
336.818106436168
 20
272.2189951881863
 30
0.0
 40
11.8269230769231
100
AcDbArc
 50
44.99999999999988
 51
126.82876644005
  0
ARC
  5
292
330
37
100
AcDbEntity
  8
Sichtbare Kanten(TC_020513_DIN)
100
AcDbCircle
 10
332.2763051877775
 20
278.283795657594
 30
0.0
 40
4.250000000000005
100
AcDbArc
 50
126.8287664400495
 51
356.0047368796674
  0
ARC
  5
293
330
37
100
AcDbEntity
  8
Sichtbare Kanten(TC_020513_DIN)
100
AcDbCircle
 10
339.0099014316536
 20
277.8134961525354
 30
0.0
 40
2.500000000000005
100
AcDbArc
 50
119.2447976051862
 51
176.004736879667
  0
ARC
  5
294
330
37
100
AcDbEntity
  8
Sichtbare Kanten(TC_020513_DIN)
100
AcDbCircle
 10
340.2312564761262
 20
275.6321452281445
 30
0.0
 40
5.000000000000008
100
AcDbArc
 50
45.0
 51
119.2447976051863
  0
ARC
  5
295
330
37
100
AcDbEntity
  8
Sichtbare Kanten(TC_020513_DIN)
100
AcDbCircle
 10
333.8672954454472
 20
269.2681841974656
 30
0.0
 40
14.00000000000001
100
AcDbArc
 50
310.3104084914708
 51
44.99999999999975
  0
ARC
  5
296
330
37
100
AcDbEntity
  8
Sichtbare Kanten(TC_020513_DIN)
100
AcDbCircle
 10
340.6600427742808
 20
261.2614005906343
 30
0.0
 40
3.500000000000015
100
AcDbArc
 50
235.9103759242858
 51
310.3104084914709
  0
ARC
  5
297
330
37
100
AcDbEntity
  8
Sichtbare Kanten(TC_020513_DIN)
100
AcDbCircle
 10
337.2971086028118
 20
256.2924294940826
 30
0.0
 40
2.5
100
AcDbArc
 50
55.91037592428667
 51
144.5940682268615
  0
ARC
  5
298
330
37
100
AcDbEntity
  8
Sichtbare Kanten(TC_020513_DIN)
100
AcDbCircle
 10
332.4067016889549
 20
259.7686228455665
 30
0.0
 40
3.499999999999998
100
AcDbArc
 50
196.2669765291687
 51
324.59406822686
  0
LINE
  5
299
330
37
100
AcDbEntity
  8
Sichtbare Kanten(TC_020513_DIN)
100
AcDbLine
 10
343.6393488158495
 20
279.290684090029
 30
0.0
 11
336.8724992654901
 21
272.9804947986949
 31
0.0
  0
LINE
  5
29A
330
37
100
AcDbEntity
  8
Sichtbare Kanten(TC_020513_DIN)
100
AcDbLine
 10
336.8724992654901
 20
272.9804947986949
 30
0.0
 11
337.2260526560833
 21
272.6269414081016
 31
0.0
  0
ARC
  5
29B
330
37
100
AcDbEntity
  8
Sichtbare Kanten(TC_020513_DIN)
100
AcDbCircle
 10
335.458285703117
 20
270.8591744551353
 30
0.0
 40
2.500000000000007
100
AcDbArc
 50
327.2459918911201
 51
45.0
  0
LINE
  5
29C
330
37
100
AcDbEntity
  8
Sichtbare Kanten(TC_020513_DIN)
100
AcDbLine
 10
337.5607886211207
 20
269.5065911934519
 30
0.0
 11
334.9520205009528
 21
265.4514304204127
 31
0.0
  0
ARC
  5
29D
330
37
100
AcDbEntity
  8
Sichtbare Kanten(TC_020513_DIN)
100
AcDbCircle
 10
333.6905187501506
 20
266.2629803774228
 30
0.0
 40
1.500000000000024
100
AcDbArc
 50
271.0527499896241
 51
327.2459918911188
  0
LINE
  5
29E
330
37
100
AcDbEntity
  8
Sichtbare Kanten(TC_020513_DIN)
100
AcDbLine
 10
333.7180781296841
 20
264.7632335719253
 30
0.0
 11
326.5676439435103
 21
264.6318370396285
 31
0.0
  0
CIRCLE
  5
29F
330
37
100
AcDbEntity
  8
Sichtbare Kanten(TC_020513_DIN)
100
AcDbCircle
 10
325.205237375912
 20
260.6061261279303
 30
0.0
 40
4.249999999999997
  0
LINE
  5
2A0
330
37
100
AcDbEntity
  8
Sichtbare Kanten(TC_020513_DIN)
100
AcDbLine
 10
323.7690967142776
 20
264.6061261279304
 30
0.0
 11
277.6413780375465
 21
264.6061261279304
 31
0.0
  0
LINE
  5
2A1
330
37
100
AcDbEntity
  8
Sichtbare Kanten(TC_020513_DIN)
100
AcDbLine
 10
337.8421729103678
 20
270.1061261279304
 30
0.0
 11
263.5683018414563
 21
270.1061261279304
 31
0.0
  0
LINE
  5
2A2
330
37
100
AcDbEntity
  8
Sichtbare Kanten(TC_020513_DIN)
100
AcDbLine
 10
496.2849923098459
 20
211.1061261279304
 30
0.0
 11
497.2849923098462
 21
211.1061261279304
 31
0.0
  0
LINE
  5
2A3
330
37
100
AcDbEntity
  8
Sichtbare Kanten(TC_020513_DIN)
100
AcDbLine
 10
497.2849923098462
 20
207.1061261279304
 30
0.0
 11
496.2849923098459
 21
207.1061261279304
 31
0.0
  0
LINE
  5
2A4
330
37
100
AcDbEntity
  8
Sichtbare Kanten(TC_020513_DIN)
100
AcDbLine
 10
497.2849923098462
 20
207.1061261279303
 30
0.0
 11
497.2849923098462
 21
211.1061261279304
 31
0.0
  0
LINE
  5
2A5
330
37
100
AcDbEntity
  8
Sichtbare Kanten(TC_020513_DIN)
100
AcDbLine
 10
441.2849923098459
 20
207.1061261279304
 30
0.0
 11
440.2849923098462
 21
207.1061261279304
 31
0.0
  0
LINE
  5
2A6
330
37
100
AcDbEntity
  8
Sichtbare Kanten(TC_020513_DIN)
100
AcDbLine
 10
440.2849923098462
 20
211.1061261279304
 30
0.0
 11
441.2849923098459
 21
211.1061261279304
 31
0.0
  0
LINE
  5
2A7
330
37
100
AcDbEntity
  8
Sichtbare Kanten(TC_020513_DIN)
100
AcDbLine
 10
440.2849923098462
 20
211.1061261279304
 30
0.0
 11
440.2849923098462
 21
207.1061261279303
 31
0.0
  0
LINE
  5
2A8
330
37
100
AcDbEntity
  8
Sichtbare Kanten(TC_020513_DIN)
100
AcDbLine
 10
447.0349923098511
 20
264.6061261279304
 30
0.0
 11
447.0349923098511
 21
264.1432329091169
 31
0.0
  0
LINE
  5
2A9
330
37
100
AcDbEntity
  8
Sichtbare Kanten(TC_020513_DIN)
100
AcDbLine
 10
447.0349923098511
 20
247.8797769418263
 30
0.0
 11
447.0349923098511
 21
211.1061261279304
 31
0.0
  0
LINE
  5
2AA
330
37
100
AcDbEntity
  8
Sichtbare Kanten(TC_020513_DIN)
100
AcDbLine
 10
490.534992309851
 20
264.6061261279304
 30
0.0
 11
490.534992309851
 21
264.1432329091169
 31
0.0
  0
LINE
  5
2AB
330
37
100
AcDbEntity
  8
Sichtbare Kanten(TC_020513_DIN)
100
AcDbLine
 10
490.534992309851
 20
247.8797769418263
 30
0.0
 11
490.534992309851
 21
211.1061261279304
 31
0.0
  0
LINE
  5
2AC
330
37
100
AcDbEntity
  8
Sichtbare Kanten(TC_020513_DIN)
100
AcDbLine
 10
441.2849923098459
 20
207.1061261279303
 30
0.0
 11
496.2849923098459
 21
207.1061261279303
 31
0.0
  0
LINE
  5
2AD
330
37
100
AcDbEntity
  8
Sichtbare Kanten(TC_020513_DIN)
100
AcDbLine
 10
496.2849923098459
 20
211.1061261279304
 30
0.0
 11
483.9249923098458
 21
211.1061261279304
 31
0.0
  0
LINE
  5
2AE
330
37
100
AcDbEntity
  8
Sichtbare Kanten(TC_020513_DIN)
100
AcDbLine
 10
483.9249923098458
 20
211.1061261279304
 30
0.0
 11
483.9249923098458
 21
224.9961261279304
 31
0.0
  0
LINE
  5
2AF
330
37
100
AcDbEntity
  8
Sichtbare Kanten(TC_020513_DIN)
100
AcDbLine
 10
453.6449923098459
 20
224.9961261279304
 30
0.0
 11
453.6449923098459
 21
211.1061261279304
 31
0.0
  0
LINE
  5
2B0
330
37
100
AcDbEntity
  8
Sichtbare Kanten(TC_020513_DIN)
100
AcDbLine
 10
441.2849923098459
 20
211.1061261279304
 30
0.0
 11
453.6449923098459
 21
211.1061261279304
 31
0.0
  0
ARC
  5
2B1
330
37
100
AcDbEntity
  8
Sichtbare Kanten(TC_020513_DIN)
100
AcDbCircle
 10
468.7849923098459
 20
224.9961261279304
 30
0.0
 40
15.14
100
AcDbArc
 50
0.0
 51
180.0
  0
CIRCLE
  5
2B2
330
37
100
AcDbEntity
  8
Sichtbare Kanten(TC_020513_DIN)
100
AcDbCircle
 10
468.784992309846
 20
224.9961261279304
 30
0.0
 40
13.39
  0
CIRCLE
  5
2B3
330
37
100
AcDbEntity
  8
Sichtbare Kanten(TC_020513_DIN)
100
AcDbCircle
 10
468.7849923098498
 20
224.9961261279304
 30
0.0
 40
11.39
  0
POLYLINE
  5
2B4
330
37
100
AcDbEntity
  8
Sichtbare Kanten(TC_020513_DIN)
100
AcDb2dPolyline
 66
     1
 10
0.0
 20
0.0
 30
0.0
 70
   128
  0
VERTEX
  5
2B5
330
2B4
100
AcDbEntity
  8
Sichtbare Kanten(TC_020513_DIN)
100
AcDbVertex
100
AcDb2dVertex
 10
450.3778263056635
 20
254.3083177191932
 30
0.0
  0
VERTEX
  5
2B6
330
2B4
100
AcDbEntity
  8
Sichtbare Kanten(TC_020513_DIN)
100
AcDbVertex
100
AcDb2dVertex
 10
450.3742118800044
 20
254.3083403689582
 30
0.0
  0
VERTEX
  5
2B8
330
2B4
100
AcDbEntity
  8
Sichtbare Kanten(TC_020513_DIN)
100
AcDbVertex
100
AcDb2dVertex
 10
450.3706487143396
 20
254.3084142787177
 30
0.0
  0
VERTEX
  5
2B9
330
2B4
100
AcDbEntity
  8
Sichtbare Kanten(TC_020513_DIN)
100
AcDbVertex
100
AcDb2dVertex
 10
450.3671523058772
 20
254.3085430247504
 30
0.0
  0
VERTEX
  5
2BA
330
2B4
100
AcDbEntity
  8
Sichtbare Kanten(TC_020513_DIN)
100
AcDbVertex
100
AcDb2dVertex
 10
450.3637333834529
 20
254.3087349517066
 30
0.0
  0
VERTEX
  5
2BB
330
2B4
100
AcDbEntity
  8
Sichtbare Kanten(TC_020513_DIN)
100
AcDbVertex
100
AcDb2dVertex
 10
450.3604062521815
 20
254.3089948279579
 30
0.0
  0
VERTEX
  5
2BC
330
2B4
100
AcDbEntity
  8
Sichtbare Kanten(TC_020513_DIN)
100
AcDbVertex
100
AcDb2dVertex
 10
450.3571840250849
 20
254.3093286139686
 30
0.0
  0
VERTEX
  5
2BD
330
2B4
100
AcDbEntity
  8
Sichtbare Kanten(TC_020513_DIN)
100
AcDbVertex
100
AcDb2dVertex
 10
450.3540786230921
 20
254.3097446543891
 30
0.0
  0
VERTEX
  5
2BE
330
2B4
100
AcDbEntity
  8
Sichtbare Kanten(TC_020513_DIN)
100
AcDbVertex
100
AcDb2dVertex
 10
450.3511043513178
 20
254.3102465254981
 30
0.0
  0
VERTEX
  5
2BF
330
2B4
100
AcDbEntity
  8
Sichtbare Kanten(TC_020513_DIN)
100
AcDbVertex
100
AcDb2dVertex
 10
450.3482743227839
 20
254.310841379853
 30
0.0
  0
VERTEX
  5
2C0
330
2B4
100
AcDbEntity
  8
Sichtbare Kanten(TC_020513_DIN)
100
AcDbVertex
100
AcDb2dVertex
 10
450.345602842605
 20
254.3115339858253
 30
0.0
  0
VERTEX
  5
2C1
330
2B4
100
AcDbEntity
  8
Sichtbare Kanten(TC_020513_DIN)
100
AcDbVertex
100
AcDb2dVertex
 10
450.3430994475245
 20
254.3123314959724
 30
0.0
  0
VERTEX
  5
2C2
330
2B4
100
AcDbEntity
  8
Sichtbare Kanten(TC_020513_DIN)
100
AcDbVertex
100
AcDb2dVertex
 10
450.3407677138209
 20
254.3132410628516
 30
0.0
  0
VERTEX
  5
2C3
330
2B4
100
AcDbEntity
  8
Sichtbare Kanten(TC_020513_DIN)
100
AcDbVertex
100
AcDb2dVertex
 10
450.3386136019587
 20
254.3142698390205
 30
0.0
  0
VERTEX
  5
2C4
330
2B4
100
AcDbEntity
  8
Sichtbare Kanten(TC_020513_DIN)
100
AcDbVertex
100
AcDb2dVertex
 10
450.3366454565882
 20
254.3154225928504
 30
0.0
  0
VERTEX
  5
2C5
330
2B4
100
AcDbEntity
  8
Sichtbare Kanten(TC_020513_DIN)
100
AcDbVertex
100
AcDb2dVertex
 10
450.3348871195673
 20
254.316693363877
 30
0.0
  0
VERTEX
  5
2C6
330
2B4
100
AcDbEntity
  8
Sichtbare Kanten(TC_020513_DIN)
100
AcDbVertex
100
AcDb2dVertex
 10
450.333339782989
 20
254.3180809600074
 30
0.0
  0
VERTEX
  5
2C7
330
2B4
100
AcDbEntity
  8
Sichtbare Kanten(TC_020513_DIN)
100
AcDbVertex
100
AcDb2dVertex
 10
450.3320010626673
 20
254.3195865733344
 30
0.0
  0
VERTEX
  5
2C8
330
2B4
100
AcDbEntity
  8
Sichtbare Kanten(TC_020513_DIN)
100
AcDbVertex
100
AcDb2dVertex
 10
450.330874534881
 20
254.3212018592079
 30
0.0
  0
VERTEX
  5
2C9
330
2B4
100
AcDbEntity
  8
Sichtbare Kanten(TC_020513_DIN)
100
AcDbVertex
100
AcDb2dVertex
 10
450.3299745047449
 20
254.3228850943763
 30
0.0
  0
VERTEX
  5
2CA
330
2B4
100
AcDbEntity
  8
Sichtbare Kanten(TC_020513_DIN)
100
AcDbVertex
100
AcDb2dVertex
 10
450.3292807066798
 20
254.3246172053535
 30
0.0
  0
VERTEX
  5
2CB
330
2B4
100
AcDbEntity
  8
Sichtbare Kanten(TC_020513_DIN)
100
AcDbVertex
100
AcDb2dVertex
 10
450.3287740671992
 20
254.3263886553962
 30
0.0
  0
VERTEX
  5
2CC
330
2B4
100
AcDbEntity
  8
Sichtbare Kanten(TC_020513_DIN)
100
AcDbVertex
100
AcDb2dVertex
 10
450.3284355128169
 20
254.3281875235755
 30
0.0
  0
VERTEX
  5
2CD
330
2B4
100
AcDbEntity
  8
Sichtbare Kanten(TC_020513_DIN)
100
AcDbVertex
100
AcDb2dVertex
 10
450.3282459700464
 20
254.3299995047767
 30
0.0
  0
VERTEX
  5
2CE
330
2B4
100
AcDbEntity
  8
Sichtbare Kanten(TC_020513_DIN)
100
AcDbVertex
100
AcDb2dVertex
 10
450.3281875574946
 20
254.331809101792
 30
0.0
  0
SEQEND
  5
2B7
330
2B4
100
AcDbEntity
  8
Sichtbare Kanten(TC_020513_DIN)
  0
POLYLINE
  5
2CF
330
37
100
AcDbEntity
  8
Sichtbare Kanten(TC_020513_DIN)
100
AcDb2dPolyline
 66
     1
 10
0.0
 20
0.0
 30
0.0
 70
   128
  0
VERTEX
  5
2D0
330
2CF
100
AcDbEntity
  8
Sichtbare Kanten(TC_020513_DIN)
100
AcDbVertex
100
AcDb2dVertex
 10
487.2417970621943
 20
254.331809101792
 30
0.0
  0
VERTEX
  5
2D1
330
2CF
100
AcDbEntity
  8
Sichtbare Kanten(TC_020513_DIN)
100
AcDbVertex
100
AcDb2dVertex
 10
487.2416826212763
 20
254.3293033225257
 30
0.0
  0
VERTEX
  5
2D3
330
2CF
100
AcDbEntity
  8
Sichtbare Kanten(TC_020513_DIN)
100
AcDbVertex
100
AcDb2dVertex
 10
487.2413416827082
 20
254.3269894702155
 30
0.0
  0
VERTEX
  5
2D4
330
2CF
100
AcDbEntity
  8
Sichtbare Kanten(TC_020513_DIN)
100
AcDbVertex
100
AcDb2dVertex
 10
487.2407837832331
 20
254.3248568160255
 30
0.0
  0
VERTEX
  5
2D5
330
2CF
100
AcDbEntity
  8
Sichtbare Kanten(TC_020513_DIN)
100
AcDbVertex
100
AcDb2dVertex
 10
487.2400172675013
 20
254.3228982073981
 30
0.0
  0
VERTEX
  5
2D6
330
2CF
100
AcDbEntity
  8
Sichtbare Kanten(TC_020513_DIN)
100
AcDbVertex
100
AcDb2dVertex
 10
487.2390469038844
 20
254.3211005313117
 30
0.0
  0
VERTEX
  5
2D7
330
2CF
100
AcDbEntity
  8
Sichtbare Kanten(TC_020513_DIN)
100
AcDbVertex
100
AcDb2dVertex
 10
487.2378512347101
 20
254.3194220645148
 30
0.0
  0
VERTEX
  5
2D8
330
2CF
100
AcDbEntity
  8
Sichtbare Kanten(TC_020513_DIN)
100
AcDbVertex
100
AcDb2dVertex
 10
487.2364147627711
 20
254.3178544623573
 30
0.0
  0
VERTEX
  5
2D9
330
2CF
100
AcDbEntity
  8
Sichtbare Kanten(TC_020513_DIN)
100
AcDbVertex
100
AcDb2dVertex
 10
487.2347243750453
 20
254.3164013011176
 30
0.0
  0
VERTEX
  5
2DA
330
2CF
100
AcDbEntity
  8
Sichtbare Kanten(TC_020513_DIN)
100
AcDbVertex
100
AcDb2dVertex
 10
487.2327943766475
 20
254.3150792700965
 30
0.0
  0
VERTEX
  5
2DB
330
2CF
100
AcDbEntity
  8
Sichtbare Kanten(TC_020513_DIN)
100
AcDbVertex
100
AcDb2dVertex
 10
487.230689140594
 20
254.3139217478949
 30
0.0
  0
VERTEX
  5
2DC
330
2CF
100
AcDbEntity
  8
Sichtbare Kanten(TC_020513_DIN)
100
AcDbVertex
100
AcDb2dVertex
 10
487.2284313166499
 20
254.3129144293982
 30
0.0
  0
VERTEX
  5
2DD
330
2CF
100
AcDbEntity
  8
Sichtbare Kanten(TC_020513_DIN)
100
AcDbVertex
100
AcDb2dVertex
 10
487.2260435545801
 20
254.3120453936774
 30
0.0
  0
VERTEX
  5
2DE
330
2CF
100
AcDbEntity
  8
Sichtbare Kanten(TC_020513_DIN)
100
AcDbVertex
100
AcDb2dVertex
 10
487.2235461199641
 20
254.3113015277107
 30
0.0
  0
VERTEX
  5
2DF
330
2CF
100
AcDbEntity
  8
Sichtbare Kanten(TC_020513_DIN)
100
AcDbVertex
100
AcDb2dVertex
 10
487.2209652388453
 20
254.3106721026618
 30
0.0
  0
VERTEX
  5
2E0
330
2CF
100
AcDbEntity
  8
Sichtbare Kanten(TC_020513_DIN)
100
AcDbVertex
100
AcDb2dVertex
 10
487.2183307135462
 20
254.310145197602
 30
0.0
  0
VERTEX
  5
2E1
330
2CF
100
AcDbEntity
  8
Sichtbare Kanten(TC_020513_DIN)
100
AcDbVertex
100
AcDb2dVertex
 10
487.215675922668
 20
254.3097100836952
 30
0.0
  0
VERTEX
  5
2E2
330
2CF
100
AcDbEntity
  8
Sichtbare Kanten(TC_020513_DIN)
100
AcDbVertex
100
AcDb2dVertex
 10
487.2130247080683
 20
254.3093572241981
 30
0.0
  0
VERTEX
  5
2E3
330
2CF
100
AcDbEntity
  8
Sichtbare Kanten(TC_020513_DIN)
100
AcDbVertex
100
AcDb2dVertex
 10
487.2103103125453
 20
254.3090639693458
 30
0.0
  0
VERTEX
  5
2E4
330
2CF
100
AcDbEntity
  8
Sichtbare Kanten(TC_020513_DIN)
100
AcDbVertex
100
AcDb2dVertex
 10
487.2075005495905
 20
254.3088243586738
 30
0.0
  0
VERTEX
  5
2E5
330
2CF
100
AcDbEntity
  8
Sichtbare Kanten(TC_020513_DIN)
100
AcDbVertex
100
AcDb2dVertex
 10
487.2045989954829
 20
254.3086348159034
 30
0.0
  0
VERTEX
  5
2E6
330
2CF
100
AcDbEntity
  8
Sichtbare Kanten(TC_020513_DIN)
100
AcDbVertex
100
AcDb2dVertex
 10
487.201609226501
 20
254.3084917647559
 30
0.0
  0
VERTEX
  5
2E7
330
2CF
100
AcDbEntity
  8
Sichtbare Kanten(TC_020513_DIN)
100
AcDbVertex
100
AcDb2dVertex
 10
487.1985360110163
 20
254.3083928210456
 30
0.0
  0
VERTEX
  5
2E8
330
2CF
100
AcDbEntity
  8
Sichtbare Kanten(TC_020513_DIN)
100
AcDbVertex
100
AcDb2dVertex
 10
487.1953853094935
 20
254.3083367926795
 30
0.0
  0
VERTEX
  5
2E9
330
2CF
100
AcDbEntity
  8
Sichtbare Kanten(TC_020513_DIN)
100
AcDbVertex
100
AcDb2dVertex
 10
487.1921583140253
 20
254.3083177191932
 30
0.0
  0
SEQEND
  5
2D2
330
2CF
100
AcDbEntity
  8
Sichtbare Kanten(TC_020513_DIN)
  0
LINE
  5
2EA
330
37
100
AcDbEntity
  8
Sichtbare Kanten(TC_020513_DIN)
100
AcDbLine
 10
450.3281869924203
 20
254.3318091002626
 30
0.0
 11
450.3281869924206
 21
252.8295244101321
 31
0.0
  0
ELLIPSE
  5
2EB
330
37
100
AcDbEntity
  8
Sichtbare Kanten(TC_020513_DIN)
100
AcDbEllipse
 10
450.2330113459058
 20
256.031273061846
 30
0.0
 11
-3.0
 21
-0.0000000000000009
 31
0.0
210
0.0
220
0.0
230
1.0
 40
0.5696591464661298
 41
3.403392041389377
 42
4.680658440619804
  0
LINE
  5
2EC
330
37
100
AcDbEntity
  8
Sichtbare Kanten(TC_020513_DIN)
100
AcDbLine
 10
450.3281869924192
 20
257.7393902509795
 30
0.0
 11
450.3281869924192
 21
257.779271878438
 31
0.0
  0
ELLIPSE
  5
2ED
330
37
100
AcDbEntity
  8
Sichtbare Kanten(TC_020513_DIN)
100
AcDbEllipse
 10
450.2330113459065
 20
255.6590193468243
 30
0.0
 11
-2.999999999948607
 21
0.0000000000003697
 31
0.0
210
0.0
220
0.0
230
1.0
 40
0.7071067811718452
 41
4.680658440619892
 42
4.712388980384776
  0
ELLIPSE
  5
2EE
330
37
100
AcDbEntity
  8
Sichtbare Kanten(TC_020513_DIN)
100
AcDbEllipse
 10
450.2330113459072
 20
250.7092718784145
 30
0.0
 11
-3.000000000014475
 21
-0.0000000000012399
 31
0.0
210
0.0
220
0.0
230
1.0
 40
0.7071067811909586
 41
4.680658440619949
 42
4.712388980384137
  0
LINE
  5
2EF
330
37
100
AcDbEntity
  8
Sichtbare Kanten(TC_020513_DIN)
100
AcDbLine
 10
453.1307888247732
 20
256.4735889708129
 30
0.0
 11
454.7576324567245
 21
253.0149244889248
 31
0.0
  0
LINE
  5
2F0
330
37
100
AcDbEntity
  8
Sichtbare Kanten(TC_020513_DIN)
100
AcDbLine
 10
452.983815773147
 20
254.3083178522131
 30
0.0
 11
450.3778268879876
 21
254.3083178430494
 31
0.0
  0
LINE
  5
2F1
330
37
100
AcDbEntity
  8
Sichtbare Kanten(TC_020513_DIN)
100
AcDbLine
 10
487.1921577254728
 20
254.3083178438545
 30
0.0
 11
484.5864178128038
 21
254.3083178438545
 31
0.0
  0
LINE
  5
2F2
330
37
100
AcDbEntity
  8
Sichtbare Kanten(TC_020513_DIN)
100
AcDbLine
 10
454.0349923098463
 20
247.8797769418263
 30
0.0
 11
454.034992309845
 21
252.2417858521597
 31
0.0
  0
LINE
  5
2F3
330
37
100
AcDbEntity
  8
Sichtbare Kanten(TC_020513_DIN)
100
AcDbLine
 10
450.3281869924206
 20
252.8295244101321
 30
0.0
 11
446.0349923098449
 21
252.8295244101321
 31
0.0
  0
LINE
  5
2F4
330
37
100
AcDbEntity
  8
Sichtbare Kanten(TC_020513_DIN)
100
AcDbLine
 10
446.0349923098449
 20
252.8295244101321
 30
0.0
 11
446.0349923098434
 21
257.779271878438
 31
0.0
  0
LINE
  5
2F5
330
37
100
AcDbEntity
  8
Sichtbare Kanten(TC_020513_DIN)
100
AcDbLine
 10
446.0349923098434
 20
257.779271878438
 30
0.0
 11
440.0349923098434
 21
257.779271878438
 31
0.0
  0
LINE
  5
2F6
330
37
100
AcDbEntity
  8
Sichtbare Kanten(TC_020513_DIN)
100
AcDbLine
 10
440.0349923098434
 20
257.779271878438
 30
0.0
 11
440.0349923098463
 21
247.8797769418263
 31
0.0
  0
LINE
  5
2F7
330
37
100
AcDbEntity
  8
Sichtbare Kanten(TC_020513_DIN)
100
AcDbLine
 10
440.0349923098463
 20
247.8797769418263
 30
0.0
 11
454.0349923098463
 21
247.8797769418263
 31
0.0
  0
LINE
  5
2F8
330
37
100
AcDbEntity
  8
Sichtbare Kanten(TC_020513_DIN)
100
AcDbLine
 10
444.5349923098438
 20
256.3648346269151
 30
0.0
 11
442.5349923098439
 21
256.3648346269151
 31
0.0
  0
LINE
  5
2F9
330
37
100
AcDbEntity
  8
Sichtbare Kanten(TC_020513_DIN)
100
AcDbLine
 10
487.2417976272686
 20
254.3318091002626
 30
0.0
 11
487.2417976272691
 21
252.8295244101321
 31
0.0
  0
ELLIPSE
  5
2FA
330
37
100
AcDbEntity
  8
Sichtbare Kanten(TC_020513_DIN)
100
AcDbEllipse
 10
487.3369732737814
 20
250.7092718784107
 30
0.0
 11
-3.000000000026173
 21
-0.0000000000001357
 31
0.0
210
0.0
220
0.0
230
1.0
 40
0.7071067811894883
 41
4.712388980384396
 42
4.744119520148483
  0
ELLIPSE
  5
2FB
330
37
100
AcDbEntity
  8
Sichtbare Kanten(TC_020513_DIN)
100
AcDbEllipse
 10
487.3369732737805
 20
255.6590193466765
 30
0.0
 11
-3.000000000051604
 21
-0.0000000000000687
 31
0.0
210
0.0
220
0.0
230
1.0
 40
0.7071067811968383
 41
4.712388980384791
 42
4.744119520148657
  0
LINE
  5
2FC
330
37
100
AcDbEntity
  8
Sichtbare Kanten(TC_020513_DIN)
100
AcDbLine
 10
487.2417976272676
 20
257.7393902509795
 30
0.0
 11
487.2417976272674
 21
257.779271878438
 31
0.0
  0
ELLIPSE
  5
2FD
330
37
100
AcDbEntity
  8
Sichtbare Kanten(TC_020513_DIN)
100
AcDbEllipse
 10
487.3369732737796
 20
256.031273061846
 30
0.0
 11
-3.0
 21
-0.0000000000000024
 31
0.0
210
0.0
220
0.0
230
1.0
 40
0.5696591464661298
 41
4.744119520148556
 42
6.021385919380866
  0
LINE
  5
2FE
330
37
100
AcDbEntity
  8
Sichtbare Kanten(TC_020513_DIN)
100
AcDbLine
 10
491.5349923098449
 20
252.8305922219976
 30
0.0
 11
487.3369732737818
 21
252.8305922219976
 31
0.0
  0
LINE
  5
2FF
330
37
100
AcDbEntity
  8
Sichtbare Kanten(TC_020513_DIN)
100
AcDbLine
 10
487.3369732737803
 20
257.7803396903035
 30
0.0
 11
491.5349923098434
 21
257.7803396903035
 31
0.0
  0
LINE
  5
300
330
37
100
AcDbEntity
  8
Sichtbare Kanten(TC_020513_DIN)
100
AcDbLine
 10
491.5349923098449
 20
252.8295244101321
 30
0.0
 11
487.2417976272691
 21
252.8295244101321
 31
0.0
  0
ELLIPSE
  5
301
330
37
100
AcDbEntity
  8
Sichtbare Kanten(TC_020513_DIN)
100
AcDbEllipse
 10
479.9069999458839
 20
253.4411365281142
 30
0.0
 11
3.003918414024675
 21
-0.0000000000000211
 31
0.0
210
0.0
220
0.0
230
1.0
 40
0.5584634731023231
 41
4.712388980385261
 42
6.026305677868434
  0
LINE
  5
302
330
37
100
AcDbEntity
  8
Sichtbare Kanten(TC_020513_DIN)
100
AcDbLine
 10
479.9069999458831
 20
251.763557817702
 30
0.0
 11
457.6629846737985
 21
251.763557817702
 31
0.0
  0
LINE
  5
303
330
37
100
AcDbEntity
  8
Sichtbare Kanten(TC_020513_DIN)
100
AcDbLine
 10
482.8123521629581
 20
253.0149244889248
 30
0.0
 11
484.4391957949126
 21
256.4735889708129
 31
0.0
  0
LINE
  5
304
330
37
100
AcDbEntity
  8
Sichtbare Kanten(TC_020513_DIN)
100
AcDbLine
 10
487.2417976272676
 20
257.7393902509795
 30
0.0
 11
483.5349923098434
 21
257.7393902509795
 31
0.0
  0
LINE
  5
305
330
37
100
AcDbEntity
  8
Sichtbare Kanten(TC_020513_DIN)
100
AcDbLine
 10
454.0349923098434
 20
257.7400238206173
 30
0.0
 11
483.5349923098434
 21
257.7400238206173
 31
0.0
  0
LINE
  5
306
330
37
100
AcDbEntity
  8
Sichtbare Kanten(TC_020513_DIN)
100
AcDbLine
 10
450.3281869924192
 20
257.7393902509795
 30
0.0
 11
454.0349923098434
 21
257.7393902509795
 31
0.0
  0
ELLIPSE
  5
307
330
37
100
AcDbEntity
  8
Sichtbare Kanten(TC_020513_DIN)
100
AcDbEllipse
 10
457.6629846737992
 20
253.4411365281142
 30
0.0
 11
-3.003918414024675
 21
-0.0000000000000211
 31
0.0
210
0.0
220
0.0
230
1.0
 40
0.5584634731023231
 41
0.2568796293141604
 42
1.570796326795413
  0
LINE
  5
308
330
37
100
AcDbEntity
  8
Sichtbare Kanten(TC_020513_DIN)
100
AcDbLine
 10
446.0349923098449
 20
252.8305922219976
 30
0.0
 11
450.233011345908
 21
252.8305922219976
 31
0.0
  0
LINE
  5
309
330
37
100
AcDbEntity
  8
Sichtbare Kanten(TC_020513_DIN)
100
AcDbLine
 10
446.0349923098434
 20
257.779271878438
 30
0.0
 11
446.0349923098434
 21
257.7803396903035
 31
0.0
  0
LINE
  5
30A
330
37
100
AcDbEntity
  8
Sichtbare Kanten(TC_020513_DIN)
100
AcDbLine
 10
446.0349923098434
 20
257.7803396903035
 30
0.0
 11
450.2330113459065
 21
257.7803396903035
 31
0.0
  0
LINE
  5
30B
330
37
100
AcDbEntity
  8
Sichtbare Kanten(TC_020513_DIN)
100
AcDbLine
 10
491.5349923098434
 20
257.7803396903035
 30
0.0
 11
491.5349923098434
 21
257.779271878438
 31
0.0
  0
LINE
  5
30C
330
37
100
AcDbEntity
  8
Sichtbare Kanten(TC_020513_DIN)
100
AcDbLine
 10
491.5349923098434
 20
257.779271878438
 30
0.0
 11
491.5349923098449
 21
252.8295244101321
 31
0.0
  0
LINE
  5
30D
330
37
100
AcDbEntity
  8
Sichtbare Kanten(TC_020513_DIN)
100
AcDbLine
 10
454.0349923098434
 20
257.779271878438
 30
0.0
 11
450.3281869924192
 21
257.779271878438
 31
0.0
  0
LINE
  5
30E
330
37
100
AcDbEntity
  8
Sichtbare Kanten(TC_020513_DIN)
100
AcDbLine
 10
454.0349923098434
 20
257.7800583160648
 30
0.0
 11
454.0349923098434
 21
257.779271878438
 31
0.0
  0
LINE
  5
30F
330
37
100
AcDbEntity
  8
Sichtbare Kanten(TC_020513_DIN)
100
AcDbLine
 10
483.5349923098434
 20
257.7800583160648
 30
0.0
 11
454.0349923098434
 21
257.7800583160648
 31
0.0
  0
LINE
  5
310
330
37
100
AcDbEntity
  8
Sichtbare Kanten(TC_020513_DIN)
100
AcDbLine
 10
483.5349923098434
 20
257.7800583160648
 30
0.0
 11
483.5349923098434
 21
257.779271878438
 31
0.0
  0
LINE
  5
311
330
37
100
AcDbEntity
  8
Sichtbare Kanten(TC_020513_DIN)
100
AcDbLine
 10
487.2417976272674
 20
257.779271878438
 30
0.0
 11
483.5349923098434
 21
257.779271878438
 31
0.0
  0
LINE
  5
312
330
37
100
AcDbEntity
  8
Sichtbare Kanten(TC_020513_DIN)
100
AcDbLine
 10
491.5349923098434
 20
257.779271878438
 30
0.0
 11
497.5349923098434
 21
257.779271878438
 31
0.0
  0
LINE
  5
313
330
37
100
AcDbEntity
  8
Sichtbare Kanten(TC_020513_DIN)
100
AcDbLine
 10
497.5349923098434
 20
257.779271878438
 30
0.0
 11
497.5349923098455
 21
264.8503396903035
 31
0.0
  0
LINE
  5
314
330
37
100
AcDbEntity
  8
Sichtbare Kanten(TC_020513_DIN)
100
AcDbLine
 10
497.5349923098455
 20
264.8503396903035
 30
0.0
 11
491.5349923098455
 21
264.8503396903035
 31
0.0
  0
LINE
  5
315
330
37
100
AcDbEntity
  8
Sichtbare Kanten(TC_020513_DIN)
100
AcDbLine
 10
491.5349923098455
 20
264.8503396903035
 30
0.0
 11
485.5349923098442
 21
260.6076990031842
 31
0.0
  0
LINE
  5
316
330
37
100
AcDbEntity
  8
Sichtbare Kanten(TC_020513_DIN)
100
AcDbLine
 10
485.5349923098442
 20
260.6076990031842
 30
0.0
 11
483.5349923098442
 21
260.6076990031842
 31
0.0
  0
LINE
  5
317
330
37
100
AcDbEntity
  8
Sichtbare Kanten(TC_020513_DIN)
100
AcDbLine
 10
483.5349923098442
 20
260.6084854408111
 30
0.0
 11
483.5349923098442
 21
260.6076990031842
 31
0.0
  0
LINE
  5
318
330
37
100
AcDbEntity
  8
Sichtbare Kanten(TC_020513_DIN)
100
AcDbLine
 10
483.5349923098442
 20
260.6084854408111
 30
0.0
 11
454.0349923098442
 21
260.6084854408111
 31
0.0
  0
LINE
  5
319
330
37
100
AcDbEntity
  8
Sichtbare Kanten(TC_020513_DIN)
100
AcDbLine
 10
454.0349923098442
 20
260.6076990031842
 30
0.0
 11
454.0349923098442
 21
260.6084854408111
 31
0.0
  0
LINE
  5
31A
330
37
100
AcDbEntity
  8
Sichtbare Kanten(TC_020513_DIN)
100
AcDbLine
 10
452.0349923098442
 20
260.6076990031842
 30
0.0
 11
454.0349923098442
 21
260.6076990031842
 31
0.0
  0
LINE
  5
31B
330
37
100
AcDbEntity
  8
Sichtbare Kanten(TC_020513_DIN)
100
AcDbLine
 10
446.0349923098455
 20
264.8503396903035
 30
0.0
 11
452.0349923098442
 21
260.6076990031842
 31
0.0
  0
LINE
  5
31C
330
37
100
AcDbEntity
  8
Sichtbare Kanten(TC_020513_DIN)
100
AcDbLine
 10
440.0349923098454
 20
264.8503396903035
 30
0.0
 11
446.0349923098455
 21
264.8503396903035
 31
0.0
  0
LINE
  5
31D
330
37
100
AcDbEntity
  8
Sichtbare Kanten(TC_020513_DIN)
100
AcDbLine
 10
440.0349923098434
 20
257.779271878438
 30
0.0
 11
440.0349923098454
 21
264.8503396903035
 31
0.0
  0
LINE
  5
31E
330
37
100
AcDbEntity
  8
Sichtbare Kanten(TC_020513_DIN)
100
AcDbLine
 10
483.5349923098464
 20
247.8797769418263
 30
0.0
 11
483.534992309845
 21
252.2417858521597
 31
0.0
  0
LINE
  5
31F
330
37
100
AcDbEntity
  8
Sichtbare Kanten(TC_020513_DIN)
100
AcDbLine
 10
497.5349923098463
 20
247.8797769418263
 30
0.0
 11
483.5349923098464
 21
247.8797769418263
 31
0.0
  0
LINE
  5
320
330
37
100
AcDbEntity
  8
Sichtbare Kanten(TC_020513_DIN)
100
AcDbLine
 10
497.5349923098434
 20
257.779271878438
 30
0.0
 11
497.5349923098463
 21
247.8797769418263
 31
0.0
  0
LINE
  5
321
330
37
100
AcDbEntity
  8
Sichtbare Kanten(TC_020513_DIN)
100
AcDbLine
 10
495.0349923098439
 20
256.3648346269151
 30
0.0
 11
493.0349923098439
 21
256.3648346269151
 31
0.0
  0
LINE
  5
322
330
37
100
AcDbEntity
  8
Sichtbare Kanten(TC_020513_DIN)
100
AcDbLine
 10
483.5349923098434
 20
257.7393902509795
 30
0.0
 11
483.5349923098434
 21
257.779271878438
 31
0.0
  0
LINE
  5
323
330
37
100
AcDbEntity
  8
Sichtbare Kanten(TC_020513_DIN)
100
AcDbLine
 10
454.0349923098463
 20
247.8805633794532
 30
0.0
 11
483.5349923098464
 21
247.8805633794532
 31
0.0
  0
LINE
  5
324
330
37
100
AcDbEntity
  8
Sichtbare Kanten(TC_020513_DIN)
100
AcDbLine
 10
454.0349923098434
 20
257.7393902509795
 30
0.0
 11
454.0349923098434
 21
257.779271878438
 31
0.0
  0
LINE
  5
325
330
37
100
AcDbEntity
  8
Sichtbare Kanten(TC_020513_DIN)
100
AcDbLine
 10
454.9745689292357
 20
250.2442488930551
 30
0.0
 11
453.1918190358894
 21
254.0343695998685
 31
0.0
  0
POLYLINE
  5
326
330
37
100
AcDbEntity
  8
Sichtbare Kanten(TC_020513_DIN)
100
AcDb2dPolyline
 66
     1
 10
0.0
 20
0.0
 30
0.0
 70
   128
  0
VERTEX
  5
327
330
326
100
AcDbEntity
  8
Sichtbare Kanten(TC_020513_DIN)
100
AcDbVertex
100
AcDb2dVertex
 10
457.8163655722469
 20
248.8356379849631
 30
0.0
  0
VERTEX
  5
328
330
326
100
AcDbEntity
  8
Sichtbare Kanten(TC_020513_DIN)
100
AcDbVertex
100
AcDb2dVertex
 10
457.367043110165
 20
248.8579301221091
 30
0.0
  0
VERTEX
  5
32A
330
326
100
AcDbEntity
  8
Sichtbare Kanten(TC_020513_DIN)
100
AcDbVertex
100
AcDb2dVertex
 10
456.9272466624112
 20
248.9241538626868
 30
0.0
  0
VERTEX
  5
32B
330
326
100
AcDbEntity
  8
Sichtbare Kanten(TC_020513_DIN)
100
AcDbVertex
100
AcDb2dVertex
 10
456.5079029524655
 20
249.033894954415
 30
0.0
  0
VERTEX
  5
32C
330
326
100
AcDbEntity
  8
Sichtbare Kanten(TC_020513_DIN)
100
AcDbVertex
100
AcDb2dVertex
 10
456.1151238406034
 20
249.1869829280097
 30
0.0
  0
VERTEX
  5
32D
330
326
100
AcDbEntity
  8
Sichtbare Kanten(TC_020513_DIN)
100
AcDbVertex
100
AcDb2dVertex
 10
455.7579167807432
 20
249.383272944184
 30
0.0
  0
VERTEX
  5
32E
330
326
100
AcDbEntity
  8
Sichtbare Kanten(TC_020513_DIN)
100
AcDbVertex
100
AcDb2dVertex
 10
455.4413970434996
 20
249.625074682923
 30
0.0
  0
VERTEX
  5
32F
330
326
100
AcDbEntity
  8
Sichtbare Kanten(TC_020513_DIN)
100
AcDbVertex
100
AcDb2dVertex
 10
455.1767154658171
 20
249.9121676070411
 30
0.0
  0
VERTEX
  5
330
330
326
100
AcDbEntity
  8
Sichtbare Kanten(TC_020513_DIN)
100
AcDbVertex
100
AcDb2dVertex
 10
455.0668211901519
 20
250.0731090886314
 30
0.0
  0
VERTEX
  5
331
330
326
100
AcDbEntity
  8
Sichtbare Kanten(TC_020513_DIN)
100
AcDbVertex
100
AcDb2dVertex
 10
454.9745686972472
 20
250.2442489249427
 30
0.0
  0
SEQEND
  5
329
330
326
100
AcDbEntity
  8
Sichtbare Kanten(TC_020513_DIN)
  0
POLYLINE
  5
332
330
37
100
AcDbEntity
  8
Sichtbare Kanten(TC_020513_DIN)
100
AcDb2dPolyline
 66
     1
 10
0.0
 20
0.0
 30
0.0
 70
   128
  0
VERTEX
  5
333
330
332
100
AcDbEntity
  8
Sichtbare Kanten(TC_020513_DIN)
100
AcDbVertex
100
AcDb2dVertex
 10
453.1918188059678
 20
254.0343700034339
 30
0.0
  0
VERTEX
  5
334
330
332
100
AcDbEntity
  8
Sichtbare Kanten(TC_020513_DIN)
100
AcDbVertex
100
AcDb2dVertex
 10
453.1450410807482
 20
254.1174219233711
 30
0.0
  0
VERTEX
  5
336
330
332
100
AcDbEntity
  8
Sichtbare Kanten(TC_020513_DIN)
100
AcDbVertex
100
AcDb2dVertex
 10
453.0725940192096
 20
254.214039860459
 30
0.0
  0
VERTEX
  5
337
330
332
100
AcDbEntity
  8
Sichtbare Kanten(TC_020513_DIN)
100
AcDbVertex
100
AcDb2dVertex
 10
452.9703732455129
 20
254.3211446387489
 30
0.0
  0
VERTEX
  5
338
330
332
100
AcDbEntity
  8
Sichtbare Kanten(TC_020513_DIN)
100
AcDbVertex
100
AcDb2dVertex
 10
452.8374715769643
 20
254.4339762313087
 30
0.0
  0
SEQEND
  5
335
330
332
100
AcDbEntity
  8
Sichtbare Kanten(TC_020513_DIN)
  0
LINE
  5
339
330
37
100
AcDbEntity
  8
Sichtbare Kanten(TC_020513_DIN)
100
AcDbLine
 10
479.7536185972246
 20
248.8356380035076
 30
0.0
 11
457.8163660224584
 21
248.8356380035076
 31
0.0
  0
POLYLINE
  5
33A
330
37
100
AcDbEntity
  8
Sichtbare Kanten(TC_020513_DIN)
100
AcDb2dPolyline
 66
     1
 10
0.0
 20
0.0
 30
0.0
 70
   128
  0
VERTEX
  5
33B
330
33A
100
AcDbEntity
  8
Sichtbare Kanten(TC_020513_DIN)
100
AcDbVertex
100
AcDb2dVertex
 10
452.8374715769643
 20
254.4339762313087
 30
0.0
  0
VERTEX
  5
33C
330
33A
100
AcDbEntity
  8
Sichtbare Kanten(TC_020513_DIN)
100
AcDbVertex
100
AcDb2dVertex
 10
452.7436932051535
 20
254.4909511191566
 30
0.0
  0
VERTEX
  5
33E
330
33A
100
AcDbEntity
  8
Sichtbare Kanten(TC_020513_DIN)
100
AcDbVertex
100
AcDb2dVertex
 10
452.6271577799674
 20
254.5332549197394
 30
0.0
  0
VERTEX
  5
33F
330
33A
100
AcDbEntity
  8
Sichtbare Kanten(TC_020513_DIN)
100
AcDbVertex
100
AcDb2dVertex
 10
452.4858327830192
 20
254.559590635987
 30
0.0
  0
VERTEX
  5
340
330
33A
100
AcDbEntity
  8
Sichtbare Kanten(TC_020513_DIN)
100
AcDbVertex
100
AcDb2dVertex
 10
452.3176845038292
 20
254.5686576945502
 30
0.0
  0
SEQEND
  5
33D
330
33A
100
AcDbEntity
  8
Sichtbare Kanten(TC_020513_DIN)
  0
POLYLINE
  5
341
330
37
100
AcDbEntity
  8
Sichtbare Kanten(TC_020513_DIN)
100
AcDb2dPolyline
 66
     1
 10
0.0
 20
0.0
 30
0.0
 70
   128
  0
VERTEX
  5
342
330
341
100
AcDbEntity
  8
Sichtbare Kanten(TC_020513_DIN)
100
AcDbVertex
100
AcDb2dVertex
 10
482.5954159224364
 20
250.2442489249427
 30
0.0
  0
VERTEX
  5
343
330
341
100
AcDbEntity
  8
Sichtbare Kanten(TC_020513_DIN)
100
AcDbVertex
100
AcDb2dVertex
 10
482.5031133616302
 20
250.0730906111915
 30
0.0
  0
VERTEX
  5
345
330
341
100
AcDbEntity
  8
Sichtbare Kanten(TC_020513_DIN)
100
AcDbVertex
100
AcDb2dVertex
 10
482.3930521929595
 20
249.9120132310111
 30
0.0
  0
VERTEX
  5
346
330
341
100
AcDbEntity
  8
Sichtbare Kanten(TC_020513_DIN)
100
AcDbVertex
100
AcDb2dVertex
 10
482.1282275641294
 20
249.6246908290107
 30
0.0
  0
VERTEX
  5
347
330
341
100
AcDbEntity
  8
Sichtbare Kanten(TC_020513_DIN)
100
AcDbVertex
100
AcDb2dVertex
 10
481.8124445402952
 20
249.3834577185829
 30
0.0
  0
VERTEX
  5
348
330
341
100
AcDbEntity
  8
Sichtbare Kanten(TC_020513_DIN)
100
AcDbVertex
100
AcDb2dVertex
 10
481.4555045092435
 20
249.1873041970451
 30
0.0
  0
VERTEX
  5
349
330
341
100
AcDbEntity
  8
Sichtbare Kanten(TC_020513_DIN)
100
AcDbVertex
100
AcDb2dVertex
 10
481.0626443350644
 20
249.0340624434669
 30
0.0
  0
VERTEX
  5
34A
330
341
100
AcDbEntity
  8
Sichtbare Kanten(TC_020513_DIN)
100
AcDbVertex
100
AcDb2dVertex
 10
480.6434377158017
 20
248.9243249280173
 30
0.0
  0
VERTEX
  5
34B
330
341
100
AcDbEntity
  8
Sichtbare Kanten(TC_020513_DIN)
100
AcDbVertex
100
AcDb2dVertex
 10
480.2031107867092
 20
248.8579813821036
 30
0.0
  0
VERTEX
  5
34C
330
341
100
AcDbEntity
  8
Sichtbare Kanten(TC_020513_DIN)
100
AcDbVertex
100
AcDb2dVertex
 10
479.7536190474361
 20
248.8356379849631
 30
0.0
  0
SEQEND
  5
344
330
341
100
AcDbEntity
  8
Sichtbare Kanten(TC_020513_DIN)
  0
LINE
  5
34D
330
37
100
AcDbEntity
  8
Sichtbare Kanten(TC_020513_DIN)
100
AcDbLine
 10
484.3781655837976
 20
254.0343695998685
 30
0.0
 11
482.5954156904481
 21
250.2442488930551
 31
0.0
  0
POLYLINE
  5
34E
330
37
100
AcDbEntity
  8
Sichtbare Kanten(TC_020513_DIN)
100
AcDb2dPolyline
 66
     1
 10
0.0
 20
0.0
 30
0.0
 70
   128
  0
VERTEX
  5
34F
330
34E
100
AcDbEntity
  8
Sichtbare Kanten(TC_020513_DIN)
100
AcDbVertex
100
AcDb2dVertex
 10
484.7325130427235
 20
254.4339762313087
 30
0.0
  0
VERTEX
  5
350
330
34E
100
AcDbEntity
  8
Sichtbare Kanten(TC_020513_DIN)
100
AcDbVertex
100
AcDb2dVertex
 10
484.5999058211202
 20
254.3212173564155
 30
0.0
  0
VERTEX
  5
352
330
34E
100
AcDbEntity
  8
Sichtbare Kanten(TC_020513_DIN)
100
AcDbVertex
100
AcDb2dVertex
 10
484.4975479567401
 20
254.2138944251258
 30
0.0
  0
VERTEX
  5
353
330
34E
100
AcDbEntity
  8
Sichtbare Kanten(TC_020513_DIN)
100
AcDbVertex
100
AcDb2dVertex
 10
484.4247134650102
 20
254.1171107871253
 30
0.0
  0
VERTEX
  5
354
330
34E
100
AcDbEntity
  8
Sichtbare Kanten(TC_020513_DIN)
100
AcDbVertex
100
AcDb2dVertex
 10
484.3781658137193
 20
254.0343700034339
 30
0.0
  0
SEQEND
  5
351
330
34E
100
AcDbEntity
  8
Sichtbare Kanten(TC_020513_DIN)
  0
POLYLINE
  5
355
330
37
100
AcDbEntity
  8
Sichtbare Kanten(TC_020513_DIN)
100
AcDb2dPolyline
 66
     1
 10
0.0
 20
0.0
 30
0.0
 70
   128
  0
VERTEX
  5
356
330
355
100
AcDbEntity
  8
Sichtbare Kanten(TC_020513_DIN)
100
AcDbVertex
100
AcDb2dVertex
 10
485.2523001158592
 20
254.5686576945502
 30
0.0
  0
VERTEX
  5
357
330
355
100
AcDbEntity
  8
Sichtbare Kanten(TC_020513_DIN)
100
AcDbVertex
100
AcDb2dVertex
 10
485.0817593062278
 20
254.5586798770148
 30
0.0
  0
VERTEX
  5
359
330
355
100
AcDbEntity
  8
Sichtbare Kanten(TC_020513_DIN)
100
AcDbVertex
100
AcDb2dVertex
 10
484.9376996481772
 20
254.5310185534675
 30
0.0
  0
VERTEX
  5
35A
330
355
100
AcDbEntity
  8
Sichtbare Kanten(TC_020513_DIN)
100
AcDbVertex
100
AcDb2dVertex
 10
484.82264599446
 20
254.4890795333106
 30
0.0
  0
VERTEX
  5
35B
330
355
100
AcDbEntity
  8
Sichtbare Kanten(TC_020513_DIN)
100
AcDbVertex
100
AcDb2dVertex
 10
484.7325130427235
 20
254.4339762313087
 30
0.0
  0
SEQEND
  5
358
330
355
100
AcDbEntity
  8
Sichtbare Kanten(TC_020513_DIN)
  0
LINE
  5
35C
330
37
100
AcDbEntity
  8
Sichtbare Kanten(TC_020513_DIN)
100
AcDbLine
 10
444.5349923098438
 20
256.3648346269151
 30
0.0
 11
444.5349923098438
 21
256.3634854408111
 31
0.0
  0
LINE
  5
35D
330
37
100
AcDbEntity
  8
Sichtbare Kanten(TC_020513_DIN)
100
AcDbLine
 10
444.5349923098438
 20
256.3634854408111
 30
0.0
 11
444.534992309846
 21
249.2924176289456
 31
0.0
  0
LINE
  5
35E
330
37
100
AcDbEntity
  8
Sichtbare Kanten(TC_020513_DIN)
100
AcDbLine
 10
442.5349923098438
 20
256.3634854408111
 30
0.0
 11
442.5349923098439
 21
256.3648346269151
 31
0.0
  0
LINE
  5
35F
330
37
100
AcDbEntity
  8
Sichtbare Kanten(TC_020513_DIN)
100
AcDbLine
 10
444.5349923098438
 20
256.3634854408111
 30
0.0
 11
442.5349923098438
 21
256.3634854408111
 31
0.0
  0
LINE
  5
360
330
37
100
AcDbEntity
  8
Sichtbare Kanten(TC_020513_DIN)
100
AcDbLine
 10
442.5349923098459
 20
249.2924176289456
 30
0.0
 11
442.5349923098438
 21
256.3634854408111
 31
0.0
  0
LINE
  5
361
330
37
100
AcDbEntity
  8
Sichtbare Kanten(TC_020513_DIN)
100
AcDbLine
 10
442.5349923098455
 20
264.8503396903035
 30
0.0
 11
442.5349923098496
 21
278.4129438198402
 31
0.0
  0
LINE
  5
362
330
37
100
AcDbEntity
  8
Sichtbare Kanten(TC_020513_DIN)
100
AcDbLine
 10
493.0349923098439
 20
256.3648346269151
 30
0.0
 11
493.0349923098439
 21
256.3634854408111
 31
0.0
  0
LINE
  5
363
330
37
100
AcDbEntity
  8
Sichtbare Kanten(TC_020513_DIN)
100
AcDbLine
 10
493.0349923098439
 20
256.3634854408111
 30
0.0
 11
495.0349923098439
 21
256.3634854408111
 31
0.0
  0
LINE
  5
364
330
37
100
AcDbEntity
  8
Sichtbare Kanten(TC_020513_DIN)
100
AcDbLine
 10
495.0349923098439
 20
256.3634854408111
 30
0.0
 11
495.0349923098439
 21
256.3648346269151
 31
0.0
  0
LINE
  5
365
330
37
100
AcDbEntity
  8
Sichtbare Kanten(TC_020513_DIN)
100
AcDbLine
 10
493.0349923098495
 20
278.4129438198402
 30
0.0
 11
493.0349923098455
 21
264.8503396903035
 31
0.0
  0
LINE
  5
366
330
37
100
AcDbEntity
  8
Sichtbare Kanten(TC_020513_DIN)
100
AcDbLine
 10
493.0349923098439
 20
256.3634854408111
 30
0.0
 11
493.0349923098459
 21
249.2924176289456
 31
0.0
  0
LINE
  5
367
330
37
100
AcDbEntity
  8
Sichtbare Kanten(TC_020513_DIN)
100
AcDbLine
 10
495.0349923098455
 20
264.8503396903035
 30
0.0
 11
495.0349923098496
 21
278.4129438198402
 31
0.0
  0
LINE
  5
368
330
37
100
AcDbEntity
  8
Sichtbare Kanten(TC_020513_DIN)
100
AcDbLine
 10
493.0349923098502
 20
280.4870495497165
 30
0.0
 11
495.0349923098501
 21
280.4870495497165
 31
0.0
  0
LINE
  5
369
330
37
100
AcDbEntity
  8
Sichtbare Kanten(TC_020513_DIN)
100
AcDbLine
 10
496.7449923098539
 20
277.2361261279304
 30
0.0
 11
496.7449923098539
 21
279.3361261279303
 31
0.0
  0
LINE
  5
36A
330
37
100
AcDbEntity
  8
Sichtbare Kanten(TC_020513_DIN)
100
AcDbLine
 10
496.5449923098539
 20
277.0361261279304
 30
0.0
 11
496.5449923098539
 21
279.5361261279304
 31
0.0
  0
LINE
  5
36B
330
37
100
AcDbEntity
  8
Sichtbare Kanten(TC_020513_DIN)
100
AcDbLine
 10
491.3249923098539
 20
277.2361261279304
 30
0.0
 11
491.3249923098539
 21
279.3361261279303
 31
0.0
  0
LINE
  5
36C
330
37
100
AcDbEntity
  8
Sichtbare Kanten(TC_020513_DIN)
100
AcDbLine
 10
491.5249923098539
 20
277.0361261279304
 30
0.0
 11
491.5249923098539
 21
279.5361261279304
 31
0.0
  0
LINE
  5
36D
330
37
100
AcDbEntity
  8
Sichtbare Kanten(TC_020513_DIN)
100
AcDbLine
 10
496.5349923098488
 20
264.8503396903035
 30
0.0
 11
496.5349923098501
 21
280.5818926964503
 31
0.0
  0
LINE
  5
36E
330
37
100
AcDbEntity
  8
Sichtbare Kanten(TC_020513_DIN)
100
AcDbLine
 10
496.53499230985
 20
280.5818926964503
 30
0.0
 11
496.5349923098525
 21
284.0459182651094
 31
0.0
  0
LINE
  5
36F
330
37
100
AcDbEntity
  8
Sichtbare Kanten(TC_020513_DIN)
100
AcDbLine
 10
491.5349923098489
 20
264.8503396903034
 30
0.0
 11
491.5349923098501
 21
280.5818926964503
 31
0.0
  0
LINE
  5
370
330
37
100
AcDbEntity
  8
Sichtbare Kanten(TC_020513_DIN)
100
AcDbLine
 10
491.53499230985
 20
280.5818926964504
 30
0.0
 11
491.5349923098525
 21
284.0459182651095
 31
0.0
  0
LINE
  5
371
330
37
100
AcDbEntity
  8
Sichtbare Kanten(TC_020513_DIN)
100
AcDbLine
 10
444.5349923098495
 20
278.4129438198402
 30
0.0
 11
444.5349923098455
 21
264.8503396903035
 31
0.0
  0
LINE
  5
372
330
37
100
AcDbEntity
  8
Sichtbare Kanten(TC_020513_DIN)
100
AcDbLine
 10
444.534992309846
 20
249.2924176289456
 30
0.0
 11
442.5349923098459
 21
249.2924176289456
 31
0.0
  0
LINE
  5
373
330
37
100
AcDbEntity
  8
Sichtbare Kanten(TC_020513_DIN)
100
AcDbLine
 10
444.5349923098501
 20
280.4870495497165
 30
0.0
 11
442.5349923098501
 21
280.4870495497165
 31
0.0
  0
LINE
  5
374
330
37
100
AcDbEntity
  8
Sichtbare Kanten(TC_020513_DIN)
100
AcDbLine
 10
446.03499230985
 20
280.5818926964504
 30
0.0
 11
446.0349923098525
 21
284.0459182651095
 31
0.0
  0
LINE
  5
375
330
37
100
AcDbEntity
  8
Sichtbare Kanten(TC_020513_DIN)
100
AcDbLine
 10
444.53499230985
 20
280.5818926964504
 30
0.0
 11
444.5349923098525
 21
284.0459182651095
 31
0.0
  0
LINE
  5
376
330
37
100
AcDbEntity
  8
Sichtbare Kanten(TC_020513_DIN)
100
AcDbLine
 10
446.0349923098489
 20
264.8503396903034
 30
0.0
 11
446.03499230985
 21
280.5818926964503
 31
0.0
  0
LINE
  5
377
330
37
100
AcDbEntity
  8
Sichtbare Kanten(TC_020513_DIN)
100
AcDbLine
 10
444.5349923098496
 20
278.4129438198402
 30
0.0
 11
444.53499230985
 21
280.5818926964504
 31
0.0
  0
LINE
  5
378
330
37
100
AcDbEntity
  8
Sichtbare Kanten(TC_020513_DIN)
100
AcDbLine
 10
441.03499230985
 20
280.5818926964503
 30
0.0
 11
441.0349923098525
 21
284.0459182651094
 31
0.0
  0
LINE
  5
379
330
37
100
AcDbEntity
  8
Sichtbare Kanten(TC_020513_DIN)
100
AcDbLine
 10
442.53499230985
 20
280.5818926964503
 30
0.0
 11
442.5349923098525
 21
284.0459182651094
 31
0.0
  0
LINE
  5
37A
330
37
100
AcDbEntity
  8
Sichtbare Kanten(TC_020513_DIN)
100
AcDbLine
 10
442.5349923098496
 20
278.4129438198402
 30
0.0
 11
442.5349923098501
 21
280.5818926964503
 31
0.0
  0
LINE
  5
37B
330
37
100
AcDbEntity
  8
Sichtbare Kanten(TC_020513_DIN)
100
AcDbLine
 10
441.0349923098488
 20
264.8503396903035
 30
0.0
 11
441.03499230985
 21
280.5818926964503
 31
0.0
  0
LINE
  5
37C
330
37
100
AcDbEntity
  8
Sichtbare Kanten(TC_020513_DIN)
100
AcDbLine
 10
439.7849923098561
 20
256.9561261279304
 30
0.0
 11
439.7849923098561
 21
264.2561261279304
 31
0.0
  0
LINE
  5
37D
330
37
100
AcDbEntity
  8
Sichtbare Kanten(TC_020513_DIN)
100
AcDbLine
 10
441.0249923098539
 20
277.0361261279304
 30
0.0
 11
441.0249923098539
 21
279.5361261279304
 31
0.0
  0
LINE
  5
37E
330
37
100
AcDbEntity
  8
Sichtbare Kanten(TC_020513_DIN)
100
AcDbLine
 10
446.0449923098539
 20
277.0361261279304
 30
0.0
 11
446.0449923098539
 21
279.5361261279304
 31
0.0
  0
LINE
  5
37F
330
37
100
AcDbEntity
  8
Sichtbare Kanten(TC_020513_DIN)
100
AcDbLine
 10
446.2449923098539
 20
277.2361261279304
 30
0.0
 11
446.2449923098539
 21
279.3361261279303
 31
0.0
  0
LINE
  5
380
330
37
100
AcDbEntity
  8
Sichtbare Kanten(TC_020513_DIN)
100
AcDbLine
 10
440.8249923098538
 20
277.2361261279304
 30
0.0
 11
440.8249923098538
 21
279.3361261279303
 31
0.0
  0
LINE
  5
381
330
37
100
AcDbEntity
  8
Sichtbare Kanten(TC_020513_DIN)
100
AcDbLine
 10
497.784992309856
 20
256.9561261279304
 30
0.0
 11
497.784992309856
 21
264.2561261279304
 31
0.0
  0
LINE
  5
382
330
37
100
AcDbEntity
  8
Sichtbare Kanten(TC_020513_DIN)
100
AcDbLine
 10
495.0349923098496
 20
278.4129438198402
 30
0.0
 11
495.0349923098501
 21
280.5818926964503
 31
0.0
  0
LINE
  5
383
330
37
100
AcDbEntity
  8
Sichtbare Kanten(TC_020513_DIN)
100
AcDbLine
 10
495.03499230985
 20
280.5818926964503
 30
0.0
 11
495.0349923098525
 21
284.0459182651094
 31
0.0
  0
LINE
  5
384
330
37
100
AcDbEntity
  8
Sichtbare Kanten(TC_020513_DIN)
100
AcDbLine
 10
493.0349923098501
 20
280.5818926964504
 30
0.0
 11
493.0349923098526
 21
284.0459182651095
 31
0.0
  0
LINE
  5
385
330
37
100
AcDbEntity
  8
Sichtbare Kanten(TC_020513_DIN)
100
AcDbLine
 10
493.0349923098495
 20
278.4129438198402
 30
0.0
 11
493.0349923098501
 21
280.5818926964504
 31
0.0
  0
LINE
  5
386
330
37
100
AcDbEntity
  8
Sichtbare Kanten(TC_020513_DIN)
100
AcDbLine
 10
495.034992309846
 20
249.2924176289456
 30
0.0
 11
495.0349923098439
 21
256.3634854408111
 31
0.0
  0
LINE
  5
387
330
37
100
AcDbEntity
  8
Sichtbare Kanten(TC_020513_DIN)
100
AcDbLine
 10
493.0349923098459
 20
249.2924176289456
 30
0.0
 11
495.034992309846
 21
249.2924176289456
 31
0.0
  0
LINE
  5
388
330
37
100
AcDbEntity
  8
Sichtbare Kanten(TC_020513_DIN)
100
AcDbLine
 10
493.0349923098539
 20
283.7861261279304
 30
0.0
 11
495.0349923098539
 21
283.7861261279304
 31
0.0
  0
LINE
  5
389
330
37
100
AcDbEntity
  8
Sichtbare Kanten(TC_020513_DIN)
100
AcDbLine
 10
496.5349923098539
 20
279.2861261279303
 30
0.0
 11
496.5449923098539
 21
279.2861261279303
 31
0.0
  0
LINE
  5
38A
330
37
100
AcDbEntity
  8
Sichtbare Kanten(TC_020513_DIN)
100
AcDbLine
 10
496.5349923098539
 20
277.2861261279303
 30
0.0
 11
496.5449923098539
 21
277.2861261279303
 31
0.0
  0
LINE
  5
38B
330
37
100
AcDbEntity
  8
Sichtbare Kanten(TC_020513_DIN)
100
AcDbLine
 10
491.5249923098539
 20
279.2861261279303
 30
0.0
 11
491.5349923098538
 21
279.2861261279303
 31
0.0
  0
LINE
  5
38C
330
37
100
AcDbEntity
  8
Sichtbare Kanten(TC_020513_DIN)
100
AcDbLine
 10
491.5249923098539
 20
277.2861261279303
 30
0.0
 11
491.5349923098538
 21
277.2861261279303
 31
0.0
  0
ARC
  5
38D
330
37
100
AcDbEntity
  8
Sichtbare Kanten(TC_020513_DIN)
100
AcDbCircle
 10
496.5449923098539
 20
277.2361261279304
 30
0.0
 40
0.2
100
AcDbArc
 50
270.0
 51
0.0
  0
ARC
  5
38E
330
37
100
AcDbEntity
  8
Sichtbare Kanten(TC_020513_DIN)
100
AcDbCircle
 10
496.5449923098539
 20
279.3361261279303
 30
0.0
 40
0.2
100
AcDbArc
 50
0.0
 51
90.0
  0
ARC
  5
38F
330
37
100
AcDbEntity
  8
Sichtbare Kanten(TC_020513_DIN)
100
AcDbCircle
 10
491.5249923098539
 20
277.2361261279304
 30
0.0
 40
0.2
100
AcDbArc
 50
180.0
 51
270.0
  0
ARC
  5
390
330
37
100
AcDbEntity
  8
Sichtbare Kanten(TC_020513_DIN)
100
AcDbCircle
 10
491.5249923098539
 20
279.3361261279303
 30
0.0
 40
0.2
100
AcDbArc
 50
90.0
 51
180.0
  0
LINE
  5
391
330
37
100
AcDbEntity
  8
Sichtbare Kanten(TC_020513_DIN)
100
AcDbLine
 10
446.0349923098525
 20
284.0459182651094
 30
0.0
 11
444.5349923098525
 21
284.0459182651094
 31
0.0
  0
LINE
  5
392
330
37
100
AcDbEntity
  8
Sichtbare Kanten(TC_020513_DIN)
100
AcDbLine
 10
442.5349923098525
 20
284.0459182651094
 30
0.0
 11
441.0349923098525
 21
284.0459182651094
 31
0.0
  0
ARC
  5
393
330
37
100
AcDbEntity
  8
Sichtbare Kanten(TC_020513_DIN)
100
AcDbCircle
 10
440.384992309856
 20
264.2561261279304
 30
0.0
 40
0.5999999999999999
100
AcDbArc
 50
125.6853347126555
 51
180.0
  0
ARC
  5
394
330
37
100
AcDbEntity
  8
Sichtbare Kanten(TC_020513_DIN)
100
AcDbCircle
 10
440.384992309856
 20
264.2561261279304
 30
0.0
 40
0.5999999999999999
100
AcDbArc
 50
82.03625597687237
 51
97.96374402312764
  0
ARC
  5
395
330
37
100
AcDbEntity
  8
Sichtbare Kanten(TC_020513_DIN)
100
AcDbCircle
 10
440.384992309856
 20
256.9561261279304
 30
0.0
 40
0.6
100
AcDbArc
 50
180.0
 51
234.3146652873445
  0
ARC
  5
396
330
37
100
AcDbEntity
  8
Sichtbare Kanten(TC_020513_DIN)
100
AcDbCircle
 10
446.0449923098539
 20
279.3361261279303
 30
0.0
 40
0.2
100
AcDbArc
 50
0.0
 51
90.0
  0
ARC
  5
397
330
37
100
AcDbEntity
  8
Sichtbare Kanten(TC_020513_DIN)
100
AcDbCircle
 10
446.0449923098539
 20
277.2361261279304
 30
0.0
 40
0.2
100
AcDbArc
 50
270.0
 51
0.0
  0
ARC
  5
398
330
37
100
AcDbEntity
  8
Sichtbare Kanten(TC_020513_DIN)
100
AcDbCircle
 10
441.0249923098539
 20
279.3361261279303
 30
0.0
 40
0.2
100
AcDbArc
 50
90.0
 51
180.0
  0
ARC
  5
399
330
37
100
AcDbEntity
  8
Sichtbare Kanten(TC_020513_DIN)
100
AcDbCircle
 10
441.0249923098539
 20
277.2361261279304
 30
0.0
 40
0.2
100
AcDbArc
 50
180.0
 51
270.0
  0
LINE
  5
39A
330
37
100
AcDbEntity
  8
Sichtbare Kanten(TC_020513_DIN)
100
AcDbLine
 10
446.0349923098539
 20
279.2861261279303
 30
0.0
 11
446.0449923098539
 21
279.2861261279303
 31
0.0
  0
LINE
  5
39B
330
37
100
AcDbEntity
  8
Sichtbare Kanten(TC_020513_DIN)
100
AcDbLine
 10
446.0349923098539
 20
277.2861261279303
 30
0.0
 11
446.0449923098539
 21
277.2861261279303
 31
0.0
  0
LINE
  5
39C
330
37
100
AcDbEntity
  8
Sichtbare Kanten(TC_020513_DIN)
100
AcDbLine
 10
441.0249923098539
 20
279.2861261279303
 30
0.0
 11
441.0349923098539
 21
279.2861261279303
 31
0.0
  0
LINE
  5
39D
330
37
100
AcDbEntity
  8
Sichtbare Kanten(TC_020513_DIN)
100
AcDbLine
 10
441.0249923098539
 20
277.2861261279303
 30
0.0
 11
441.0349923098539
 21
277.2861261279303
 31
0.0
  0
LINE
  5
39E
330
37
100
AcDbEntity
  8
Sichtbare Kanten(TC_020513_DIN)
100
AcDbLine
 10
442.5349923098539
 20
283.7861261279304
 30
0.0
 11
444.5349923098539
 21
283.7861261279304
 31
0.0
  0
ARC
  5
39F
330
37
100
AcDbEntity
  8
Sichtbare Kanten(TC_020513_DIN)
100
AcDbCircle
 10
497.1849923098559
 20
256.9561261279304
 30
0.0
 40
0.5999999999999999
100
AcDbArc
 50
305.6853347126555
 51
0.0
  0
ARC
  5
3A0
330
37
100
AcDbEntity
  8
Sichtbare Kanten(TC_020513_DIN)
100
AcDbCircle
 10
497.1849923098559
 20
264.2561261279304
 30
0.0
 40
0.5999999999999999
100
AcDbArc
 50
82.03625597687237
 51
97.96374402312764
  0
ARC
  5
3A1
330
37
100
AcDbEntity
  8
Sichtbare Kanten(TC_020513_DIN)
100
AcDbCircle
 10
497.1849923098559
 20
264.2561261279304
 30
0.0
 40
0.6
100
AcDbArc
 50
0.0
 51
54.31466528734452
  0
LINE
  5
3A2
330
37
100
AcDbEntity
  8
Sichtbare Kanten(TC_020513_DIN)
100
AcDbLine
 10
496.5349923098525
 20
284.0459182651094
 30
0.0
 11
495.0349923098525
 21
284.0459182651094
 31
0.0
  0
LINE
  5
3A3
330
37
100
AcDbEntity
  8
Sichtbare Kanten(TC_020513_DIN)
100
AcDbLine
 10
493.0349923098526
 20
284.0459182651094
 30
0.0
 11
491.5349923098525
 21
284.0459182651094
 31
0.0
  0
LINE
  5
3A4
330
37
100
AcDbEntity
  8
Sichtbare Kanten(TC_020513_DIN)
100
AcDbLine
 10
484.7849923098492
 20
264.6061261279304
 30
0.0
 11
490.784992309851
 21
264.6061261279304
 31
0.0
  0
LINE
  5
3A5
330
37
100
AcDbEntity
  8
Sichtbare Kanten(TC_020513_DIN)
100
AcDbLine
 10
484.7849923098492
 20
264.6061261279304
 30
0.0
 11
452.7849923098492
 21
264.6061261279304
 31
0.0
  0
LINE
  5
3A6
330
37
100
AcDbEntity
  8
Sichtbare Kanten(TC_020513_DIN)
100
AcDbLine
 10
446.784992309851
 20
264.6061261279304
 30
0.0
 11
452.7849923098492
 21
264.6061261279304
 31
0.0
  0
LINE
  5
3A7
330
37
100
AcDbEntity
  8
Sichtbare Kanten(TC_020513_DIN)
100
AcDbLine
 10
490.784992309851
 20
264.6061261279304
 30
0.0
 11
490.784992309851
 21
270.1061261279304
 31
0.0
  0
LINE
  5
3A8
330
37
100
AcDbEntity
  8
Sichtbare Kanten(TC_020513_DIN)
100
AcDbLine
 10
484.7849923098492
 20
270.1061261279304
 30
0.0
 11
490.784992309851
 21
270.1061261279304
 31
0.0
  0
LINE
  5
3A9
330
37
100
AcDbEntity
  8
Sichtbare Kanten(TC_020513_DIN)
100
AcDbLine
 10
484.7849923098492
 20
270.1061261279304
 30
0.0
 11
452.7849923098492
 21
270.1061261279304
 31
0.0
  0
LINE
  5
3AA
330
37
100
AcDbEntity
  8
Sichtbare Kanten(TC_020513_DIN)
100
AcDbLine
 10
446.784992309851
 20
270.1061261279304
 30
0.0
 11
452.7849923098492
 21
270.1061261279304
 31
0.0
  0
LINE
  5
3AB
330
37
100
AcDbEntity
  8
Sichtbare Kanten(TC_020513_DIN)
100
AcDbLine
 10
446.784992309851
 20
264.6061261279304
 30
0.0
 11
446.784992309851
 21
270.1061261279304
 31
0.0
  0
ARC
  5
3AC
330
37
100
AcDbEntity
  8
Stich 1-Linien(TC_020513_DIN)
 48
26.65643310546875
100
AcDbCircle
 10
276.205237375912
 20
260.6061261279303
 30
0.0
 40
52.00225423775709
100
AcDbArc
 50
180.0
 51
216.4245536889484
  0
ARC
  5
3AD
330
37
100
AcDbEntity
  8
Stich 1-Linien(TC_020513_DIN)
 48
26.65643310546875
100
AcDbCircle
 10
325.205237375912
 20
260.6061261279303
 30
0.0
 40
52.00225423775709
100
AcDbArc
 50
323.5754463110515
 51
0.0
  0
LINE
  5
3AE
330
37
100
AcDbEntity
  8
Mittellinie(TC_020513_DIN)
  6
CHAIN
 48
7.778351783752441
100
AcDbLine
 10
248.205237375912
 20
202.1061261279303
 30
0.0
 11
248.205237375912
 21
216.1061261279304
 31
0.0
  0
LINE
  5
3AF
330
37
100
AcDbEntity
  8
Mittellinie(TC_020513_DIN)
  6
CHAIN
 48
23.99096870422363
100
AcDbLine
 10
300.705237375912
 20
274.8489097853432
 30
0.0
 11
300.705237375912
 21
202.1061261279303
 31
0.0
  0
LINE
  5
3B0
330
37
100
AcDbEntity
  8
Mittellinie(TC_020513_DIN)
  6
CHAIN
 48
7.778351783752441
100
AcDbLine
 10
353.205237375912
 20
202.1061261279303
 30
0.0
 11
353.205237375912
 21
216.1061261279304
 31
0.0
  0
LINE
  5
3B1
330
37
100
AcDbEntity
  8
Mittellinie(TC_020513_DIN)
  6
CHAIN
 48
7.778351783752441
100
AcDbLine
 10
446.2849923098477
 20
202.1061261279303
 30
0.0
 11
446.2849923098477
 21
216.1061261279304
 31
0.0
  0
LINE
  5
3B2
330
37
100
AcDbEntity
  8
Mittellinie(TC_020513_DIN)
  6
CHAIN
 48
7.778351783752441
100
AcDbLine
 10
491.2849923098477
 20
202.1061261279303
 30
0.0
 11
491.2849923098477
 21
216.1061261279304
 31
0.0
  0
LINE
  5
3B3
330
37
100
AcDbEntity
  8
Mittelpunktmarkierung(TC_020513_DIN)
  6
CHAIN
 48
23.99096870422363
100
AcDbLine
 10
488.9249923098459
 20
224.9961261279304
 30
0.0
 11
448.6449923098459
 21
224.9961261279304
 31
0.0
  0
LINE
  5
3B4
330
37
100
AcDbEntity
  8
Mittelpunktmarkierung(TC_020513_DIN)
  6
CHAIN
 48
23.99096870422363
100
AcDbLine
 10
468.7849923098459
 20
276.9633738075479
 30
0.0
 11
468.7849923098459
 21
200.1378476674438
 31
0.0
  0
DIMENSION
  5
3B5
330
37
100
AcDbEntity
  8
Bemaßungen(TC_020513_DIN)
  6
Continuous
 62
     7
370
    25
100
AcDbDimension
  2
*D11
 10
497.784992309856
 20
308.2561261279304
 30
0.0
 11
468.7849923098561
 21
308.2561261279304
 31
0.0
 70
   160
  1
<>
 42
57.99999999999994
  3
STANDARD-TC_020513_DIN
100
AcDbAlignedDimension
 13
439.7849923098561
 23
260.6061261279303
 33
0.0
 14
497.784992309856
 24
260.6061261279303
 34
0.0
 50
180.0
100
AcDbRotatedDimension
1001
ACAD
1000
DSTYLE
1002
{
1070
   271
1070
     2
1070
   272
1070
     2
1070
    48
1040
0.0
1070
    47
1040
0.0
1002
}
  0
DIMENSION
  5
47B
330
37
100
AcDbEntity
  8
Bemaßungen(TC_020513_DIN)
  6
Continuous
 62
     7
370
    25
100
AcDbDimension
  2
*D12
 10
224.2029831381549
 20
308.2561261279304
 30
0.0
 11
300.705237375912
 21
308.2561261279304
 31
0.0
 70
   160
  1
<>
 42
153.0045084755141
  3
STANDARD-TC_020513_DIN
100
AcDbAlignedDimension
 13
377.2074916136691
 23
260.6061261279303
 33
0.0
 14
224.2029831381549
 24
260.6061261279303
 34
0.0
 50
180.0
100
AcDbRotatedDimension
1001
ACAD
1000
DSTYLE
1002
{
1070
   271
1070
     2
1070
   272
1070
     2
1070
    48
1040
0.0
1070
    47
1040
0.0
1002
}
  0
DIMENSION
  5
540
330
37
100
AcDbEntity
  8
Bemaßungen(TC_020513_DIN)
  6
Continuous
 62
     7
370
    25
100
AcDbDimension
  2
*D13
 10
491.2849923098477
 20
182.1061261279303
 30
0.0
 11
468.7849923098477
 21
182.1061261279303
 31
0.0
 70
   160
  1
<>
 42
45.0
  3
STANDARD-TC_020513_DIN
100
AcDbAlignedDimension
 13
446.2849923098477
 23
202.1061261279303
 33
0.0
 14
491.2849923098477
 24
202.1061261279303
 34
0.0
100
AcDbRotatedDimension
1001
ACAD
1000
DSTYLE
1002
{
1070
   271
1070
     2
1070
   272
1070
     2
1070
    48
1040
0.0
1070
    47
1040
0.0
1002
}
  0
DIMENSION
  5
605
330
37
100
AcDbEntity
  8
Bemaßungen(TC_020513_DIN)
  6
Continuous
 62
     7
370
    25
100
AcDbDimension
  2
*D14
 10
497.2849923098462
 20
165.1061261279303
 30
0.0
 11
468.7849923098462
 21
165.1061261279303
 31
0.0
 70
   160
  1
<>
 42
57.00000000000006
  3
STANDARD-TC_020513_DIN
100
AcDbAlignedDimension
 13
440.2849923098462
 23
207.1061261279303
 33
0.0
 14
497.2849923098462
 24
209.1061261279303
 34
0.0
 50
180.0
100
AcDbRotatedDimension
1001
ACAD
1000
DSTYLE
1002
{
1070
   271
1070
     2
1070
   272
1070
     2
1070
    48
1040
0.0
1070
    47
1040
0.0
1002
}
  0
DIMENSION
  5
6CA
330
37
100
AcDbEntity
  8
Bemaßungen(TC_020513_DIN)
  6
Continuous
 62
     7
370
    25
100
AcDbDimension
  2
*D15
 10
509.914288118459
 20
211.1061261279303
 30
0.0
 11
509.9142881184589
 21
193.0852530037831
 31
0.0
 70
   160
  1
<>
 42
4.0
  3
STANDARD-TC_020513_DIN
100
AcDbAlignedDimension
 13
496.2849923098459
 23
207.1061261279303
 33
0.0
 14
496.2849923098459
 24
211.1061261279303
 34
0.0
 50
90.0
100
AcDbRotatedDimension
1001
ACAD
1000
DSTYLE
1002
{
1070
   271
1070
     2
1070
   272
1070
     2
1070
    48
1040
0.0
1070
    47
1040
0.0
1002
}
  0
DIMENSION
  5
7A9
330
37
100
AcDbEntity
  8
Bemaßungen(TC_020513_DIN)
  6
Continuous
 62
     7
370
    25
100
AcDbDimension
  2
*D16
 10
552.7849923098493
 20
270.1061261279303
 30
0.0
 11
552.7849923098492
 21
238.6061261279303
 31
0.0
 70
   160
  1
<>
 42
63.0
  3
STANDARD-TC_020513_DIN
100
AcDbAlignedDimension
 13
496.2849923098459
 23
207.1061261279303
 33
0.0
 14
484.7849923098492
 24
270.1061261279303
 34
0.0
 50
90.0
100
AcDbRotatedDimension
1001
ACAD
1000
DSTYLE
1002
{
1070
   271
1070
     2
1070
   272
1070
     2
1070
    48
1040
0.0
1070
    47
1040
0.0
1002
}
  0
MTEXT
  5
86E
102
{ACAD_REACTORS
330
870
102
}
330
37
100
AcDbEntity
  8
Symbole(TC_020513_DIN)
 62
     7
100
AcDbMText
 10
504.165714815189
 20
235.4280826685329
 30
0.0
 40
6.99999988079071
 41
24.14947271347046
 71
     1
 72
     1
  1
{\fAIGDT|b0|i0;\H7.0000;n\fArial|b0|i0;\H7.0000; 5,5}
  7
Aktuell-BSI
 73
     1
 44
1.0
1001
ACAD
1000
MTEXTBEGIN
1070
    73
1070
     1
1070
    44
1040
1.0
1070
    74
1070
     0
1000
MTEXTEND
  0
LEADER
  5
870
330
37
100
AcDbEntity
  8
Symbole(TC_020513_DIN)
  6
Continuous
 62
     7
370
    25
100
AcDbLeader
  3
STANDARD-TC_020513_DIN$7
 73
     0
 40
8.384720327421554
 41
20.71350613915416
 76
     3
 10
491.2849923098477
 20
211.1061261279303
 30
0.0
 10
499.1657148151889
 20
231.9280827281375
 30
0.0
 10
502.5657148151889
 20
231.9280827281375
 30
0.0
340
86E
213
0.0
223
-3.499999940395355
233
0.0
1001
ACAD
1000
DSTYLE
1002
{
1070
    77
1070
     0
1002
}
  0
DIMENSION
  5
871
330
37
100
AcDbEntity
  8
Bemaßungen(TC_020513_DIN)
  6
Continuous
 62
     7
370
    25
100
AcDbDimension
  2
*D17
 10
353.205237375912
 20
182.1061261279303
 30
0.0
 11
300.705237375912
 21
182.1061261279303
 31
0.0
 70
   160
  1
<>
 42
105.0
  3
STANDARD-TC_020513_DIN
100
AcDbAlignedDimension
 13
248.205237375912
 23
202.1061261279303
 33
0.0
 14
353.205237375912
 24
202.1061261279303
 34
0.0
 50
180.0
100
AcDbRotatedDimension
1001
ACAD
1000
DSTYLE
1002
{
1070
   271
1070
     2
1070
   272
1070
     2
1070
    48
1040
0.0
1070
    47
1040
0.0
1002
}
  0
DIMENSION
  5
936
330
37
100
AcDbEntity
  8
Bemaßungen(TC_020513_DIN)
  6
Continuous
 62
     7
370
    25
100
AcDbDimension
  2
*D18
 10
359.205237375912
 20
165.1061261279303
 30
0.0
 11
300.705237375912
 21
165.1061261279303
 31
0.0
 70
   160
  1
<>
 42
117.0
  3
STANDARD-TC_020513_DIN
100
AcDbAlignedDimension
 13
242.205237375912
 23
218.0511261279304
 33
0.0
 14
359.205237375912
 24
218.0511261279304
 34
0.0
 50
180.0
100
AcDbRotatedDimension
1001
ACAD
1000
DSTYLE
1002
{
1070
   271
1070
     2
1070
   272
1070
     2
1070
    48
1040
0.0
1070
    47
1040
0.0
1002
}
  0
DIMENSION
  5
9FB
330
37
100
AcDbEntity
  8
Bemaßungen(TC_020513_DIN)
  6
Continuous
 62
     7
370
    25
100
AcDbDimension
  2
*D19
 10
390.7052373759121
 20
239.5481261279304
 30
0.0
 11
390.705237375912
 21
224.9961261279304
 31
0.0
 70
   160
  1
 PG21
 42
29.10399999999999
  3
STANDARD-TC_020513_DIN
100
AcDbAlignedDimension
 13
358.705237375912
 23
210.4441261279303
 33
0.0
 14
358.705237375912
 24
239.5481261279304
 34
0.0
 50
270.0
100
AcDbRotatedDimension
1001
ACAD
1000
DSTYLE
1002
{
1070
   271
1070
     2
1070
   272
1070
     2
1070
    48
1040
0.0
1070
    47
1040
0.0
1002
}
  0
ENDSEC
  0
SECTION
  2
OBJECTS
  0
DICTIONARY
  5
C
330
0
100
AcDbDictionary
281
     1
  3
ACAD_COLOR
350
30
  3
ACAD_GROUP
350
D
  3
ACAD_LAYOUT
350
2F
  3
ACAD_MATERIAL
350
10
  3
ACAD_MLINESTYLE
350
2C
  3
ACAD_PLOTSETTINGS
350
2E
  3
ACAD_PLOTSTYLENAME
350
E
  3
ACAD_TABLESTYLE
350
31
  3
ACAD_VISUALSTYLE
350
14
  3
AcDbVariableDictionary
350
AC0
  3
DWGPROPS
350
AC6
  0
DICTIONARY
  5
AD5
330
FA
100
AcDbDictionary
280
     1
281
     1
  3
ACAD_MTEXT_RT
360
AD6
  0
DICTIONARY
  5
AD7
330
10A
100
AcDbDictionary
280
     1
281
     1
  3
ACAD_MTEXT_RT
360
AD8
  0
DICTIONARY
  5
AD9
330
12B
100
AcDbDictionary
280
     1
281
     1
  3
ACAD_MTEXT_RT
360
ADA
  0
DICTIONARY
  5
30
102
{ACAD_REACTORS
330
C
102
}
330
C
100
AcDbDictionary
281
     1
  0
DICTIONARY
  5
D
102
{ACAD_REACTORS
330
C
102
}
330
C
100
AcDbDictionary
281
     1
  0
DICTIONARY
  5
2F
102
{ACAD_REACTORS
330
C
102
}
330
C
100
AcDbDictionary
281
     1
  3
Layout1
350
36
  3
Layout2
350
3E
  3
Model
350
3A
  0
DICTIONARY
  5
10
102
{ACAD_REACTORS
330
C
102
}
330
C
100
AcDbDictionary
281
     1
  3
ByBlock
350
12
  3
ByLayer
350
11
  3
Global
350
13
  0
DICTIONARY
  5
2C
102
{ACAD_REACTORS
330
C
102
}
330
C
100
AcDbDictionary
281
     1
  3
Standard
350
2D
  0
DICTIONARY
  5
2E
102
{ACAD_REACTORS
330
C
102
}
330
C
100
AcDbDictionary
281
     1
  0
ACDBDICTIONARYWDFLT
  5
E
102
{ACAD_REACTORS
330
C
102
}
330
C
100
AcDbDictionary
281
     1
  3
Normal
350
F
100
AcDbDictionaryWithDefault
340
F
  0
DICTIONARY
  5
31
102
{ACAD_REACTORS
330
C
102
}
330
C
100
AcDbDictionary
281
     1
  3
Standard
350
32
  0
DICTIONARY
  5
14
102
{ACAD_REACTORS
330
C
102
}
330
C
100
AcDbDictionary
281
     1
  3
2dWireframe
350
1A
  3
3D Hidden
350
1C
  3
3dWireframe
350
1B
  3
Basic
350
19
  3
Brighten
350
20
  3
ColorChange
350
24
  3
Conceptual
350
1D
  3
Dim
350
1F
  3
Facepattern
350
23
  3
Flat
350
15
  3
FlatWithEdges
350
16
  3
Gouraud
350
17
  3
GouraudWithEdges
350
18
  3
Linepattern
350
22
  3
Realistic
350
1E
  3
Thicken
350
21
  0
DICTIONARY
  5
AC0
102
{ACAD_REACTORS
330
C
102
}
330
C
100
AcDbDictionary
281
     1
  3
CTABLESTYLE
350
AC1
  3
DIMASSOC
350
AC5
  3
HIDETEXT
350
AC4
  3
INDEXCTL
350
AC3
  3
SORTENTS
350
AC2
  0
XRECORD
  5
AC6
102
{ACAD_REACTORS
330
C
102
}
330
C
100
AcDbXrecord
280
     1
  1
DWGPROPS COOKIE
  2

  3

  4
Dethlefs
  6

  7

  8

  9

300
Manager=
301
Firma=
302
Kategorie=
303
Bauteilnummer=CHP 16
304
Bezeichnung=
305
Projekt=
306
Konstrukteur=Dethlefs
307
Ingenieur=
308
Bevollmächtigter=
309
Kostenstelle=
 40
0.0000573263888889
 41
2454112.459800544
 42
2454112.459800544
  1

 90
       22
300
Zulieferer=
300
Benutzerstatus=
300
Konstruktionsstatus=InBearbeitung
300
Kontrolliert von=
300
Konstruktion genehmigt von=
300
Fertigung genehmigt von=
300
FirstViewScale:1=1:2
300
SaveDate=01/04/2007
300
SaveTime=14:09
300
PaperSize=A4
300
AllViewScales=1:2
300
FirstViewScale=1:2
  0
XRECORD
  5
AD6
102
{ACAD_REACTORS
330
AD5
102
}
330
AD5
100
AcDbXrecord
280
     1
 40
45260.0
  1
Für spanlose Bearbeitung
  0
XRECORD
  5
AD8
102
{ACAD_REACTORS
330
AD7
102
}
330
AD7
100
AcDbXrecord
280
     1
 40
49954.0
  1
Alle nicht bemaßten Radien R
  0
XRECORD
  5
ADA
102
{ACAD_REACTORS
330
AD9
102
}
330
AD9
100
AcDbXrecord
280
     1
 40
53914.0
  1
Werkstückkanten\Pnach ISO 13715
  0
LAYOUT
  5
36
102
{ACAD_XDICTIONARY
360
ACF
102
}
102
{ACAD_REACTORS
330
2F
102
}
330
2F
100
AcDbPlotSettings
  1

  2

  4

  6

 40
0.0
 41
0.0
 42
0.0
 43
0.0
 44
0.0
 45
0.0
 46
0.0
 47
0.0
 48
0.0
 49
0.0
140
0.0
141
0.0
142
1.0
143
1.0
 70
   688
 72
     0
 73
     0
 74
     5
  7

 75
    16
147
1.0
148
0.0
149
0.0
100
AcDbLayout
  1
Layout1
 70
     1
 71
     1
 10
0.0
 20
0.0
 11
12.0
 21
9.0
 12
0.0
 22
0.0
 32
0.0
 14
0.0
 24
0.0
 34
0.0
 15
0.0
 25
0.0
 35
0.0
146
0.0
 13
0.0
 23
0.0
 33
0.0
 16
1.0
 26
0.0
 36
0.0
 17
0.0
 27
1.0
 37
0.0
 76
     0
330
33
  0
LAYOUT
  5
3E
102
{ACAD_XDICTIONARY
360
AD3
102
}
102
{ACAD_REACTORS
330
2F
102
}
330
2F
100
AcDbPlotSettings
  1

  2

  4

  6

 40
0.0
 41
0.0
 42
0.0
 43
0.0
 44
0.0
 45
0.0
 46
0.0
 47
0.0
 48
0.0
 49
0.0
140
0.0
141
0.0
142
1.0
143
1.0
 70
   688
 72
     0
 73
     0
 74
     5
  7

 75
    16
147
1.0
148
0.0
149
0.0
100
AcDbLayout
  1
Layout2
 70
     1
 71
     2
 10
0.0
 20
0.0
 11
12.0
 21
9.0
 12
0.0
 22
0.0
 32
0.0
 14
0.0
 24
0.0
 34
0.0
 15
0.0
 25
0.0
 35
0.0
146
0.0
 13
0.0
 23
0.0
 33
0.0
 16
1.0
 26
0.0
 36
0.0
 17
0.0
 27
1.0
 37
0.0
 76
     0
330
3B
  0
LAYOUT
  5
3A
102
{ACAD_XDICTIONARY
360
AD1
102
}
102
{ACAD_REACTORS
330
2F
102
}
330
2F
100
AcDbPlotSettings
  1

  2

  4

  6

 40
0.0
 41
0.0
 42
0.0
 43
0.0
 44
0.0
 45
0.0
 46
0.0
 47
0.0
 48
0.0
 49
0.0
140
0.0
141
0.0
142
1.0
143
1.0
 70
  1712
 72
     0
 73
     0
 74
     0
  7

 75
     0
147
1.0
148
0.0
149
0.0
100
AcDbLayout
  1
Model
 70
     1
 71
     0
 10
0.0
 20
0.0
 11
12.0
 21
9.0
 12
0.0
 22
0.0
 32
0.0
 14
0.0
 24
0.0
 34
0.0
 15
0.0
 25
0.0
 35
0.0
146
0.0
 13
0.0
 23
0.0
 33
0.0
 16
1.0
 26
0.0
 36
0.0
 17
0.0
 27
1.0
 37
0.0
 76
     0
330
37
  0
MATERIAL
  5
12
102
{ACAD_XDICTIONARY
360
AC9
102
}
102
{ACAD_REACTORS
330
10
102
}
330
10
100
AcDbMaterial
  1
ByBlock
  0
MATERIAL
  5
11
102
{ACAD_XDICTIONARY
360
AC7
102
}
102
{ACAD_REACTORS
330
10
102
}
330
10
100
AcDbMaterial
  1
ByLayer
  0
MATERIAL
  5
13
102
{ACAD_XDICTIONARY
360
ACB
102
}
102
{ACAD_REACTORS
330
10
102
}
330
10
100
AcDbMaterial
  1
Global
  0
MLINESTYLE
  5
2D
102
{ACAD_REACTORS
330
2C
102
}
330
2C
100
AcDbMlineStyle
  2
STANDARD
 70
     0
  3

 62
   256
 51
90.0
 52
90.0
 71
     2
 49
0.5
 62
   256
  6
BYLAYER
 49
-0.5
 62
   256
  6
BYLAYER
  0
ACDBPLACEHOLDER
  5
F
102
{ACAD_REACTORS
330
E
102
}
330
E
  0
TABLESTYLE
  5
32
102
{ACAD_XDICTIONARY
360
ACD
102
}
102
{ACAD_REACTORS
330
31
102
}
330
31
100
AcDbTableStyle
  3
Standard
 70
     0
 71
     0
 40
0.06
 41
0.06
280
     0
281
     0
  7
Standard
140
0.18
170
     2
 62
     0
 63
     7
283
     0
274
    -2
284
     1
 64
     0
275
    -2
285
     1
 65
     0
276
    -2
286
     1
 66
     0
277
    -2
287
     1
 67
     0
278
    -2
288
     1
 68
     0
279
    -2
289
     1
 69
     0
  7
Standard
140
0.25
170
     5
 62
     0
 63
     7
283
     0
274
    -2
284
     1
 64
     0
275
    -2
285
     1
 65
     0
276
    -2
286
     1
 66
     0
277
    -2
287
     1
 67
     0
278
    -2
288
     1
 68
     0
279
    -2
289
     1
 69
     0
  7
Standard
140
0.18
170
     5
 62
     0
 63
     7
283
     0
274
    -2
284
     1
 64
     0
275
    -2
285
     1
 65
     0
276
    -2
286
     1
 66
     0
277
    -2
287
     1
 67
     0
278
    -2
288
     1
 68
     0
279
    -2
289
     1
 69
     0
  0
VISUALSTYLE
  5
1A
102
{ACAD_REACTORS
330
14
102
}
330
14
100
AcDbVisualStyle
  2
2dWireframe
 70
     4
 71
     0
 72
     2
 73
     0
 90
        0
 40
-0.6
 41
-30.0
 62
     5
 63
     7
 74
     1
 91
        4
 64
     7
 65
   257
 75
     1
175
     1
 42
1.0
 92
        0
 66
   257
 43
1.0
 76
     1
 77
     6
 78
     2
 67
     7
 79
     5
170
     0
171
     0
290
     0
174
     0
 93
        1
 44
0.0
173
     0
291
     0
 45
0.0
1001
ACAD
1000
AcDbSavedByObjectVersion
1070
     0
  0
VISUALSTYLE
  5
1C
102
{ACAD_REACTORS
330
14
102
}
330
14
100
AcDbVisualStyle
  2
3D Hidden
 70
     6
 71
     1
 72
     2
 73
     2
 90
        0
 40
-0.6
 41
-30.0
 62
     5
 63
     7
 74
     2
 91
        2
 64
     7
 65
   257
 75
     2
175
     1
 42
40.0
 92
        0
 66
   257
 43
1.0
 76
     1
 77
     6
 78
     2
 67
     7
 79
     3
170
     0
171
     0
290
     0
174
     0
 93
        1
 44
0.0
173
     0
291
     0
 45
0.0
1001
ACAD
1000
AcDbSavedByObjectVersion
1070
     0
  0
VISUALSTYLE
  5
1B
102
{ACAD_REACTORS
330
14
102
}
330
14
100
AcDbVisualStyle
  2
3dWireframe
 70
     5
 71
     0
 72
     2
 73
     0
 90
        0
 40
-0.6
 41
-30.0
 62
     5
 63
     7
 74
     1
 91
        4
 64
     7
 65
   257
 75
     1
175
     1
 42
1.0
 92
        0
 66
   257
 43
1.0
 76
     1
 77
     6
 78
     2
 67
     7
 79
     5
170
     0
171
     0
290
     0
174
     0
 93
        1
 44
0.0
173
     0
291
     0
 45
0.0
1001
ACAD
1000
AcDbSavedByObjectVersion
1070
     0
  0
VISUALSTYLE
  5
19
102
{ACAD_REACTORS
330
14
102
}
330
14
100
AcDbVisualStyle
  2
Basic
 70
     7
 71
     1
 72
     0
 73
     1
 90
        0
 40
-0.6
 41
-30.0
 62
     5
 63
     7
 74
     0
 91
        4
 64
     7
 65
   257
 75
     1
175
     1
 42
1.0
 92
        8
 66
     7
 43
1.0
 76
     1
 77
     6
 78
     2
 67
     7
 79
     5
170
     0
171
     0
290
     0
174
     0
 93
        1
 44
0.0
173
     0
291
     1
 45
0.0
1001
ACAD
1000
AcDbSavedByObjectVersion
1070
     0
  0
VISUALSTYLE
  5
20
102
{ACAD_REACTORS
330
14
102
}
330
14
100
AcDbVisualStyle
  2
Brighten
 70
    12
 71
     2
 72
     2
 73
     0
 90
        0
 40
-0.6
 41
-30.0
 62
     5
 63
     7
 74
     1
 91
        4
 64
     7
 65
   257
 75
     1
175
     1
 42
1.0
 92
        8
 66
     7
 43
1.0
 76
     1
 77
     6
 78
     2
 67
     7
 79
     5
170
     0
171
     0
290
     0
174
     0
 93
        1
 44
50.0
173
     0
291
     1
 45
0.0
1001
ACAD
1000
AcDbSavedByObjectVersion
1070
     0
  0
VISUALSTYLE
  5
24
102
{ACAD_REACTORS
330
14
102
}
330
14
100
AcDbVisualStyle
  2
ColorChange
 70
    16
 71
     2
 72
     2
 73
     3
 90
        0
 40
-0.6
 41
-30.0
 62
     5
 63
     8
 74
     1
 91
        4
 64
     7
 65
   257
 75
     1
175
     1
 42
1.0
 92
        8
 66
     8
 43
1.0
 76
     1
 77
     6
 78
     2
 67
     7
 79
     5
170
     0
171
     0
290
     0
174
     0
 93
        1
 44
0.0
173
     0
291
     1
 45
0.0
1001
ACAD
1000
AcDbSavedByObjectVersion
1070
     0
  0
VISUALSTYLE
  5
1D
102
{ACAD_REACTORS
330
14
102
}
330
14
100
AcDbVisualStyle
  2
Conceptual
 70
     9
 71
     3
 72
     2
 73
     0
 90
        0
 40
-0.6
 41
-30.0
 62
     5
 63
     7
 74
     2
 91
        2
 64
     7
 65
   257
 75
     1
175
     1
 42
40.0
 92
        8
 66
     7
 43
1.0
 76
     1
 77
     6
 78
     2
 67
     7
 79
     3
170
     0
171
     0
290
     0
174
     0
 93
        1
 44
0.0
173
     0
291
     0
 45
0.0
1001
ACAD
1000
AcDbSavedByObjectVersion
1070
     0
  0
VISUALSTYLE
  5
1F
102
{ACAD_REACTORS
330
14
102
}
330
14
100
AcDbVisualStyle
  2
Dim
 70
    11
 71
     2
 72
     2
 73
     0
 90
        0
 40
-0.6
 41
-30.0
 62
     5
 63
     7
 74
     1
 91
        4
 64
     7
 65
   257
 75
     1
175
     1
 42
1.0
 92
        8
 66
     7
 43
1.0
 76
     1
 77
     6
 78
     2
 67
     7
 79
     5
170
     0
171
     0
290
     0
174
     0
 93
        1
 44
-50.0
173
     0
291
     1
 45
0.0
1001
ACAD
1000
AcDbSavedByObjectVersion
1070
     0
  0
VISUALSTYLE
  5
23
102
{ACAD_REACTORS
330
14
102
}
330
14
100
AcDbVisualStyle
  2
Facepattern
 70
    15
 71
     2
 72
     2
 73
     0
 90
        0
 40
-0.6
 41
-30.0
 62
     5
 63
     7
 74
     1
 91
        4
 64
     7
 65
   257
 75
     1
175
     1
 42
1.0
 92
        8
 66
     7
 43
1.0
 76
     1
 77
     6
 78
     2
 67
     7
 79
     5
170
     0
171
     0
290
     0
174
     0
 93
        1
 44
0.0
173
     0
291
     1
 45
0.0
1001
ACAD
1000
AcDbSavedByObjectVersion
1070
     0
  0
VISUALSTYLE
  5
15
102
{ACAD_REACTORS
330
14
102
}
330
14
100
AcDbVisualStyle
  2
Flat
 70
     0
 71
     2
 72
     1
 73
     1
 90
        2
 40
-0.6
 41
30.0
 62
     5
 63
     7
 74
     0
 91
        4
 64
     7
 65
   257
 75
     1
175
     1
 42
1.0
 92
        8
 66
     7
 43
1.0
 76
     1
 77
     6
 78
     2
 67
     7
 79
     5
170
     0
171
     0
290
     0
174
     0
 93
       13
 44
0.0
173
     0
291
     1
 45
0.0
1001
ACAD
1000
AcDbSavedByObjectVersion
1070
     0
  0
VISUALSTYLE
  5
16
102
{ACAD_REACTORS
330
14
102
}
330
14
100
AcDbVisualStyle
  2
FlatWithEdges
 70
     1
 71
     2
 72
     1
 73
     1
 90
        2
 40
-0.6
 41
30.0
 62
     5
 63
     7
 74
     1
 91
        4
 64
     7
 65
   257
 75
     1
175
     1
 42
1.0
 92
        0
 66
   257
 43
1.0
 76
     1
 77
     6
 78
     2
 67
     7
 79
     5
170
     0
171
     0
290
     0
174
     0
 93
       13
 44
0.0
173
     0
291
     1
 45
0.0
1001
ACAD
1000
AcDbSavedByObjectVersion
1070
     0
  0
VISUALSTYLE
  5
17
102
{ACAD_REACTORS
330
14
102
}
330
14
100
AcDbVisualStyle
  2
Gouraud
 70
     2
 71
     2
 72
     2
 73
     1
 90
        2
 40
-0.6
 41
30.0
 62
     5
 63
     7
 74
     0
 91
        4
 64
     7
 65
   257
 75
     1
175
     1
 42
1.0
 92
        0
 66
     7
 43
1.0
 76
     1
 77
     6
 78
     2
 67
     7
 79
     5
170
     0
171
     0
290
     0
174
     0
 93
       13
 44
0.0
173
     0
291
     1
 45
0.0
1001
ACAD
1000
AcDbSavedByObjectVersion
1070
     0
  0
VISUALSTYLE
  5
18
102
{ACAD_REACTORS
330
14
102
}
330
14
100
AcDbVisualStyle
  2
GouraudWithEdges
 70
     3
 71
     2
 72
     2
 73
     1
 90
        2
 40
-0.6
 41
30.0
 62
     5
 63
     7
 74
     1
 91
        4
 64
     7
 65
   257
 75
     1
175
     1
 42
1.0
 92
        0
 66
   257
 43
1.0
 76
     1
 77
     6
 78
     2
 67
     7
 79
     5
170
     0
171
     0
290
     0
174
     0
 93
       13
 44
0.0
173
     0
291
     1
 45
0.0
1001
ACAD
1000
AcDbSavedByObjectVersion
1070
     0
  0
VISUALSTYLE
  5
22
102
{ACAD_REACTORS
330
14
102
}
330
14
100
AcDbVisualStyle
  2
Linepattern
 70
    14
 71
     2
 72
     2
 73
     0
 90
        0
 40
-0.6
 41
-30.0
 62
     5
 63
     7
 74
     1
 91
        4
 64
     7
 65
   257
 75
     7
175
     7
 42
1.0
 92
        8
 66
     7
 43
1.0
 76
     1
 77
     6
 78
     2
 67
     7
 79
     5
170
     0
171
     0
290
     0
174
     0
 93
        1
 44
0.0
173
     0
291
     1
 45
0.0
1001
ACAD
1000
AcDbSavedByObjectVersion
1070
     0
  0
VISUALSTYLE
  5
1E
102
{ACAD_REACTORS
330
14
102
}
330
14
100
AcDbVisualStyle
  2
Realistic
 70
     8
 71
     2
 72
     2
 73
     0
 90
        0
 40
-0.6
 41
-30.0
 62
     5
 63
     7
 74
     1
 91
        0
 64
     7
 65
   257
 75
     1
175
     1
 42
1.0
 92
        8
 66
     8
 43
1.0
 76
     1
 77
     6
 78
     2
 67
     7
 79
     5
170
     0
171
     0
290
     0
174
     0
 93
       13
 44
0.0
173
     0
291
     0
 45
0.0
1001
ACAD
1000
AcDbSavedByObjectVersion
1070
     0
  0
VISUALSTYLE
  5
21
102
{ACAD_REACTORS
330
14
102
}
330
14
100
AcDbVisualStyle
  2
Thicken
 70
    13
 71
     2
 72
     2
 73
     0
 90
        0
 40
-0.6
 41
-30.0
 62
     5
 63
     7
 74
     1
 91
        4
 64
     7
 65
   257
 75
     1
175
     1
 42
1.0
 92
       12
 66
     7
 43
1.0
 76
     1
 77
     6
 78
     2
 67
     7
 79
     5
170
     0
171
     0
290
     0
174
     0
 93
        1
 44
0.0
173
     0
291
     1
 45
0.0
1001
ACAD
1000
AcDbSavedByObjectVersion
1070
     0
  0
DICTIONARYVAR
  5
AC1
102
{ACAD_REACTORS
330
AC0
102
}
330
AC0
100
DictionaryVariables
280
     0
  1
STANDARD
  0
DICTIONARYVAR
  5
AC5
102
{ACAD_REACTORS
330
AC0
102
}
330
AC0
100
DictionaryVariables
280
     0
  1
1
  0
DICTIONARYVAR
  5
AC4
102
{ACAD_REACTORS
330
AC0
102
}
330
AC0
100
DictionaryVariables
280
     0
  1
1
  0
DICTIONARYVAR
  5
AC3
102
{ACAD_REACTORS
330
AC0
102
}
330
AC0
100
DictionaryVariables
280
     0
  1
0
  0
DICTIONARYVAR
  5
AC2
102
{ACAD_REACTORS
330
AC0
102
}
330
AC0
100
DictionaryVariables
280
     0
  1
127
  0
DICTIONARY
  5
ACF
330
36
100
AcDbDictionary
280
     1
281
     1
  3
ACAD_XREC_ROUNDTRIP
360
AD0
  0
DICTIONARY
  5
AD3
330
3E
100
AcDbDictionary
280
     1
281
     1
  3
ACAD_XREC_ROUNDTRIP
360
AD4
  0
DICTIONARY
  5
AD1
330
3A
100
AcDbDictionary
280
     1
281
     1
  3
ACAD_XREC_ROUNDTRIP
360
AD2
  0
DICTIONARY
  5
AC9
330
12
100
AcDbDictionary
280
     1
281
     1
  3
ACAD_XREC_ROUNDTRIP
360
ACA
  0
DICTIONARY
  5
AC7
330
11
100
AcDbDictionary
280
     1
281
     1
  3
ACAD_XREC_ROUNDTRIP
360
AC8
  0
DICTIONARY
  5
ACB
330
13
100
AcDbDictionary
280
     1
281
     1
  3
ACAD_XREC_ROUNDTRIP
360
ACC
  0
DICTIONARY
  5
ACD
330
32
100
AcDbDictionary
280
     1
281
     1
  3
ACAD_XREC_ROUNDTRIP
360
ACE
  0
XRECORD
  5
AD0
102
{ACAD_REACTORS
330
ACF
102
}
330
ACF
100
AcDbXrecord
280
     1
102
SHADEPLOT
 70
     0
102
SHADEPLOTRESLEVEL
 70
     2
102
SHADEPLOTCUSTOMDPI
 70
   300
  0
XRECORD
  5
AD4
102
{ACAD_REACTORS
330
AD3
102
}
330
AD3
100
AcDbXrecord
280
     1
102
SHADEPLOT
 70
     0
102
SHADEPLOTRESLEVEL
 70
     2
102
SHADEPLOTCUSTOMDPI
 70
   300
  0
XRECORD
  5
AD2
102
{ACAD_REACTORS
330
AD1
102
}
330
AD1
100
AcDbXrecord
280
     1
102
SHADEPLOT
 70
     0
102
SHADEPLOTRESLEVEL
 70
     2
102
SHADEPLOTCUSTOMDPI
 70
   300
  0
XRECORD
  5
ACA
102
{ACAD_REACTORS
330
AC9
102
}
330
AC9
100
AcDbXrecord
280
     1
102
MATERIAL
148
0.0
149
0.0
149
0.0
 93
        0
 94
       63
282
     0
 72
     1
 77
     1
171
     1
175
     1
179
     1
273
     0
  0
XRECORD
  5
AC8
102
{ACAD_REACTORS
330
AC7
102
}
330
AC7
100
AcDbXrecord
280
     1
102
MATERIAL
148
0.0
149
0.0
149
0.0
 93
        0
 94
       63
282
     0
 72
     1
 77
     1
171
     1
175
     1
179
     1
273
     0
  0
XRECORD
  5
ACC
102
{ACAD_REACTORS
330
ACB
102
}
330
ACB
100
AcDbXrecord
280
     1
102
MATERIAL
148
0.0
149
0.0
149
0.0
 93
        0
 94
       63
282
     0
 72
     1
 77
     1
171
     1
175
     1
179
     1
273
     0
  0
XRECORD
  5
ACE
102
{ACAD_REACTORS
330
ACD
102
}
330
ACD
100
AcDbXrecord
280
     1
102
ACAD_ROUNDTRIP_PRE2007_TABLESTYLE
 90
      512
 91
        0
  1

 92
      512
 93
        0
  2

 94
      512
 95
        0
  3

  0
ENDSEC
  0
EOF
